<?xml version="1.0" standalone="no"?>
<!DOCTYPE svg PUBLIC "-//W3C//DTD SVG 1.1//EN" "http://www.w3.org/Graphics/SVG/1.1/DTD/svg11.dtd" >
<svg xmlns="http://www.w3.org/2000/svg">
<metadata></metadata>
<defs>
<font id="pxplus_ibm_vga8regular" horiz-adv-x="800" >
<font-face units-per-em="1600" ascent="1200" descent="-400" />
<missing-glyph horiz-adv-x="500" />
<glyph />
<glyph />
<glyph unicode="&#xd;" d="M0 200h100v100h100v700h600v-300h-400v-600h-100v-100h-300v200zM400 900v-100h200v100h-200z" />
<glyph d="M0 100v800h100v-800h-100zM200 400v100h400v-100h-100v-100h-200v100h-100zM200 700v100h100v-100h-100zM600 700h-100v100h100v-100zM800 100h-100v800h100v-800zM100 100h600v-100h-600v100zM100 900v100h600v-100h-600z" />
<glyph d="M0 100v800h100v100h600v-100h100v-800h-100v-100h-600v100h-100zM200 500v-100h100v-100h200v100h100v100h-400zM200 700h100v100h-100v-100zM600 700v100h-100v-100h100z" />
<glyph d="M0 300v400h100v100h200v-100h100v100h200v-100h100v-400h-100v-100h-100v-100h-100v-100h-100v100h-100v100h-100v100h-100z" />
<glyph d="M0 400v100h100v100h100v100h100v100h100v-100h100v-100h100v-100h100v-100h-100v-100h-100v-100h-100v-100h-100v100h-100v100h-100v100h-100z" />
<glyph d="M0 300v300h200v200h100v100h200v-100h100v-200h200v-300h-300v300h-200v-300h-300zM200 0v100h100v200h200v-200h100v-100h-400z" />
<glyph d="M0 400v200h100v100h100v100h100v100h200v-100h100v-100h100v-100h100v-200h-100v-100h-200v-200h100v-100h-400v100h100v200h-200v100h-100z" />
<glyph d="M500 200h-200v100h-100v200h100v100h200v-100h100v-200h-100v-100z" />
<glyph d="M0 -400v1600h800v-1600h-800zM200 300h100v-100h200v100h100v200h-100v100h-200v-100h-100v-200z" />
<glyph unicode="&#x9;" d="M100 200v400h100v100h400v-100h100v-400h-100v-100h-400v100h-100zM200 300h100v-100h200v100h100v200h-100v100h-200v-100h-100v-200z" />
<glyph unicode="&#xa;" d="M0 -400v1600h800v-1600h-800zM200 200v-100h400v100h100v400h-100v100h-400v-100h-100v-400h100zM200 500h100v100h200v-100h100v-200h-100v-100h-200v100h-100v200z" />
<glyph d="M0 100v400h100v100h100v100h100v100h100v100h-100v100h400v-400h-100v200h-100v-100h-100v-100h100v-100h100v-400h-100v-100h-400v100h-100zM200 100h200v400h-200v-400z" />
<glyph d="M200 500h-100v400h100v100h400v-100h100v-400h-100v-100h-100v-100h200v-100h-200v-200h-200v200h-200v100h200v100h-100v100zM300 500h200v400h-200v-400z" />
<glyph d="M0 200h100v800h700v-900h-100v-100h-200v300h100v400h-300v-700h-100v-100h-200v300zM300 900v-100h300v100h-300z" />
<glyph d="M0 200v100h200v-100h-200zM0 400v100h200v100h100v300h200v-300h100v-100h200v-100h-200v-100h-100v-300h-200v300h-100v100h-200zM0 600v100h200v-100h-200zM600 200v100h200v-100h-200zM600 600v100h200v-100h-200zM300 500v-100h200v100h-200z" />
<glyph d="M0 0v1100h100v-100h100v-100h100v-100h100v-100h100v-100h200v-100h-200v-100h-100v-100h-100v-100h-100v-100h-100v-100h-100z" />
<glyph d="M0 500v100h200v100h100v100h100v100h100v100h100v100h100v-1100h-100v100h-100v100h-100v100h-100v100h-100v100h-200z" />
<glyph d="M200 200v100h-100v100h200v300h-200v100h100v100h100v100h200v-100h100v-100h100v-100h-200v-300h200v-100h-100v-100h-100v-100h-200v100h-100z" />
<glyph d="M100 200h200v-200h-200v200zM100 300v700h200v-700h-200zM500 200h200v-200h-200v200zM500 300v700h200v-700h-200z" />
<glyph d="M800 0h-200v900h-100v-900h-200v500h-200v100h-100v300h100v100h700v-1000zM200 600h100v300h-100v-300z" />
<glyph d="M0 0v100h200v-100h300v100h-100v100h-200v100h-100v100h-100v200h100v100h100v100h-100v100h-100v100h100v100h500v-100h100v-100h-200v100h-300v-100h100v-100h200v-100h100v-100h100v-200h-100v-100h-100v-100h100v-100h100v-100h-100v-100h-500v100h-100zM400 300v100 h100v200h-100v100h-100v-100h-100v-200h100v-100h100z" />
<glyph d="M0 0v400h700v-400h-700z" />
<glyph d="M200 200v100h-100v100h200v300h-200v100h100v100h100v100h200v-100h100v-100h100v-100h-200v-300h200v-100h-100v-100h-100v-100h200v-100h-600v100h200v100h-100z" />
<glyph d="M100 700v100h100v100h100v100h200v-100h100v-100h100v-100h-200v-700h-200v700h-200z" />
<glyph d="M100 200v100h200v700h200v-700h200v-100h-100v-100h-100v-100h-200v100h-100v100h-100z" />
<glyph d="M0 400v100h400v100h-100v100h200v-100h100v-100h100v-100h-100v-100h-100v-100h-200v100h100v100h-400z" />
<glyph d="M0 400v100h100v100h100v100h200v-100h-100v-100h400v-100h-400v-100h100v-100h-200v100h-100v100h-100z" />
<glyph d="M0 200v400h200v-300h500v-100h-700z" />
<glyph d="M0 400v100h100v100h100v100h100v-200h100v200h100v-100h100v-100h100v-100h-100v-100h-100v-100h-100v200h-100v-200h-100v100h-100v100h-100z" />
<glyph d="M0 100v200h100v200h100v200h100v100h100v-100h100v-200h100v-200h100v-200h-700z" />
<glyph d="M0 600v200h700v-200h-100v-200h-100v-200h-100v-100h-100v100h-100v200h-100v200h-100z" />
<glyph unicode=" " />
<glyph unicode="!" d="M200 600v300h100v100h200v-100h100v-300h-100v-300h-200v300h-100zM300 200h200v-200h-200v200z" />
<glyph unicode="&#x22;" d="M100 1100h200v-400h-100v100h-100v300zM500 1100h200v-300h-100v-100h-100v400z" />
<glyph unicode="#" d="M0 200v100h100v300h-100v100h100v200h200v-200h100v200h200v-200h100v-100h-100v-300h100v-100h-100v-200h-200v200h-100v-200h-200v200h-100zM400 300v300h-100v-300h100z" />
<glyph unicode="$" d="M0 100v200h100v-100h100v-100h300v400h-400v100h-100v300h100v100h200v200h200v-200h100v-100h100v-200h-100v100h-100v100h-300v-300h400v-100h100v-400h-100v-100h-100v-200h-200v200h-200v100h-100z" />
<glyph unicode="%" d="M0 200h100v100h100v100h100v100h100v100h100v100h100v100h100v-200h-100v-100h-100v-100h-100v-100h-100v-100h-100v-100h-100v-100h-100v200zM0 600v200h200v-200h-200zM500 200h200v-200h-200v200z" />
<glyph unicode="&#x26;" d="M0 100v400h100v100h100v100h-100v200h100v100h300v-100h100v-200h-100v-100h-100v-100h100v100h200v-100h-100v-400h100v-100h-200v100h-100v300h-100v100h-100v-400h200v-100h-300v100h-100zM400 700v200h-100v-200h100z" />
<glyph unicode="'" d="M400 800h-100v-100h-200v100h100v300h200v-300z" />
<glyph unicode="(" d="M200 200v600h100v100h100v100h200v-100h-100v-100h-100v-600h100v-100h100v-100h-200v100h-100v100h-100z" />
<glyph unicode=")" d="M200 0v100h100v100h100v600h-100v100h-100v100h200v-100h100v-100h100v-600h-100v-100h-100v-100h-200z" />
<glyph unicode="*" d="M0 400v100h200v100h-100v100h200v-100h200v100h200v-100h-100v-100h200v-100h-200v-100h100v-100h-200v100h-200v-100h-200v100h100v100h-200z" />
<glyph unicode="+" d="M500 200h-200v200h-200v100h200v200h200v-200h200v-100h-200v-200z" />
<glyph unicode="," d="M400 0v-100h-200v100h100v300h200v-300h-100z" />
<glyph unicode="-" d="M0 400v100h700v-100h-700z" />
<glyph unicode="." d="M500 200v-200h-200v200h200z" />
<glyph unicode="/" d="M0 200h100v100h100v100h100v100h100v100h100v100h100v100h100v-200h-100v-100h-100v-100h-100v-100h-100v-100h-100v-100h-100v-100h-100v200z" />
<glyph unicode="0" d="M0 200v600h100v100h100v100h300v-100h100v-100h100v-600h-100v-100h-100v-100h-300v100h-100v100h-100zM200 200h100v-100h100v100h100v600h-100v100h-100v-100h-100v-600zM400 400h-100v200h100v-200z" />
<glyph unicode="1" d="M100 0v100h200v600h-200v100h100v100h100v100h200v-900h200v-100h-600z" />
<glyph unicode="2" d="M0 0v300h100v100h100v100h100v100h100v100h100v200h-300v-100h-200v100h100v100h500v-100h100v-200h-100v-100h-100v-100h-100v-100h-100v-100h-100v-200h300v100h200v-200h-700z" />
<glyph unicode="3" d="M0 100v100h200v-100h300v400h-300v100h300v300h-300v-100h-200v100h100v100h500v-100h100v-300h-100v-100h100v-400h-100v-100h-500v100h-100z" />
<glyph unicode="4" d="M0 400v200h100v100h100v100h100v100h100v100h200v-500h100v-100h-100v-300h100v-100h-400v100h100v300h-400zM200 500h200v200h-100v-100h-100v-100z" />
<glyph unicode="5" d="M0 100v100h200v-100h300v400h-500v500h700v-100h-500v-300h400v-100h100v-400h-100v-100h-500v100h-100z" />
<glyph unicode="6" d="M0 100v700h100v100h100v100h300v-100h-200v-100h-100v-200h400v-100h100v-400h-100v-100h-500v100h-100zM200 100h300v400h-300v-400z" />
<glyph unicode="7" d="M0 1000h700v-400h-100v-100h-100v-100h-100v-400h-200v400h100v100h100v100h100v300h-300v-100h-200v200z" />
<glyph unicode="8" d="M0 100v400h100v100h-100v300h100v100h500v-100h100v-300h-100v-100h100v-400h-100v-100h-500v100h-100zM200 100h300v400h-300v-400zM200 600h300v300h-300v-300z" />
<glyph unicode="9" d="M0 600v300h100v100h500v-100h100v-700h-100v-100h-100v-100h-400v100h300v100h100v300h-400v100h-100zM200 600h300v300h-300v-300z" />
<glyph unicode=":" d="M500 100h-200v200h200v-200zM500 600h-200v200h200v-200z" />
<glyph unicode=";" d="M400 100v-100h-200v100h100v200h200v-200h-100zM500 600h-200v200h200v-200z" />
<glyph unicode="&#x3c;" d="M200 500v100h100v100h100v100h100v100h200v-100h-100v-100h-100v-100h-100v-100h-100v-100h100v-100h100v-100h100v-100h100v-100h-200v100h-100v100h-100v100h-100v100h-100v100h100z" />
<glyph unicode="=" d="M100 300v100h600v-100h-600zM100 600v100h600v-100h-600z" />
<glyph unicode="&#x3e;" d="M200 100v100h100v100h100v100h100v100h-100v100h-100v100h-100v100h-100v100h200v-100h100v-100h100v-100h100v-100h100v-100h-100v-100h-100v-100h-100v-100h-100v-100h-200v100h100z" />
<glyph unicode="?" d="M0 700v200h100v100h500v-100h100v-200h-100v-100h-100v-300h-200v300h100v100h100v200h-300v-200h-200zM300 200h200v-200h-200v200z" />
<glyph unicode="@" d="M0 100v700h100v100h500v-100h100v-500h-100v-100h-300v400h200v200h-300v-700h400v-100h-500v100h-100z" />
<glyph unicode="A" d="M0 0v700h100v100h100v100h100v100h100v-100h100v-100h100v-100h100v-700h-200v400h-300v-400h-200zM200 500h300v200h-100v100h-100v-100h-100v-200z" />
<glyph unicode="B" d="M0 0v100h100v800h-100v100h600v-100h100v-300h-100v-100h100v-400h-100v-100h-600zM300 100h200v400h-200v-400zM300 600h200v300h-200v-300z" />
<glyph unicode="C" d="M0 200v600h100v100h100v100h400v-100h100v-200h-100v100h-100v100h-200v-100h-100v-600h100v-100h200v100h100v100h100v-200h-100v-100h-400v100h-100v100h-100z" />
<glyph unicode="D" d="M0 0v100h100v800h-100v100h500v-100h100v-100h100v-600h-100v-100h-100v-100h-500zM300 100h100v100h100v600h-100v100h-100v-800z" />
<glyph unicode="E" d="M0 0v100h100v800h-100v100h700v-300h-100v100h-100v100h-200v-300h100v100h100v-300h-100v100h-100v-400h200v100h100v100h100v-300h-700z" />
<glyph unicode="F" d="M0 0v100h100v800h-100v100h700v-300h-100v100h-100v100h-200v-300h100v100h100v-300h-100v100h-100v-400h100v-100h-400z" />
<glyph unicode="G" d="M0 200v600h100v100h100v100h400v-100h100v-200h-100v100h-100v100h-200v-100h-100v-600h100v-100h200v-100h-300v100h-100v100h-100zM600 100h-100v300h-200v100h400v-500h-100v100z" />
<glyph unicode="H" d="M0 0v1000h200v-400h300v400h200v-1000h-200v500h-300v-500h-200z" />
<glyph unicode="I" d="M500 100h100v-100h-400v100h100v800h-100v100h400v-100h-100v-800z" />
<glyph unicode="J" d="M0 100v300h200v-300h200v800h-100v100h400v-100h-100v-800h-100v-100h-400v100h-100z" />
<glyph unicode="K" d="M0 0v100h100v800h-100v100h300v-400h100v100h100v300h200v-300h-100v-100h-100v-200h100v-100h100v-300h-200v300h-100v100h-100v-400h-300z" />
<glyph unicode="L" d="M0 0v100h100v800h-100v100h400v-100h-100v-800h200v100h100v100h100v-300h-700z" />
<glyph unicode="M" d="M0 0v1000h200v-100h100v-100h100v100h100v100h200v-1000h-200v600h-100v-100h-100v100h-100v-600h-200z" />
<glyph unicode="N" d="M0 0v1000h200v-100h100v-100h100v-100h100v300h200v-1000h-200v400h-100v100h-100v100h-100v-600h-200z" />
<glyph unicode="O" d="M0 100v800h100v100h500v-100h100v-800h-100v-100h-500v100h-100zM200 100h300v800h-300v-800z" />
<glyph unicode="P" d="M0 0v100h100v800h-100v100h600v-100h100v-300h-100v-100h-300v-400h100v-100h-400zM300 600h200v300h-200v-300z" />
<glyph unicode="Q" d="M0 100v800h100v100h500v-100h100v-800h-100v-200h100v-100h-300v200h-300v100h-100zM200 100h100v200h100v-100h100v700h-300v-800z" />
<glyph unicode="R" d="M0 0v100h100v800h-100v100h600v-100h100v-300h-100v-200h100v-400h-200v400h-100v100h-100v-500h-300zM300 600h200v300h-200v-300z" />
<glyph unicode="S" d="M0 100v200h200v-200h300v300h-100v100h-200v100h-100v100h-100v200h100v100h500v-100h100v-200h-200v200h-300v-200h100v-100h200v-100h100v-100h100v-300h-100v-100h-500v100h-100z" />
<glyph unicode="T" d="M100 700v300h600v-300h-100v100h-100v-700h100v-100h-400v100h100v700h-100v-100h-100z" />
<glyph unicode="U" d="M0 100v900h200v-900h300v900h200v-900h-100v-100h-500v100h-100z" />
<glyph unicode="V" d="M0 300v700h200v-700h100v-100h100v100h100v700h200v-700h-100v-100h-100v-100h-100v-100h-100v100h-100v100h-100v100h-100z" />
<glyph unicode="W" d="M0 100v900h200v-700h100v300h100v-300h100v700h200v-900h-100v-100h-200v200h-100v-200h-200v100h-100z" />
<glyph unicode="X" d="M0 200h100v200h100v200h-100v200h-100v200h200v-200h100v-100h100v100h100v200h200v-200h-100v-200h-100v-200h100v-200h100v-200h-200v200h-100v100h-100v-100h-100v-200h-200v200z" />
<glyph unicode="Y" d="M100 600v400h200v-400h200v400h200v-400h-100v-100h-100v-400h100v-100h-400v100h100v400h-100v100h-100z" />
<glyph unicode="Z" d="M0 0v300h100v100h100v100h100v100h100v100h100v200h-300v-100h-100v-100h-100v300h700v-300h-100v-100h-100v-100h-100v-100h-100v-100h-100v-200h300v100h100v100h100v-300h-700z" />
<glyph unicode="[" d="M400 100h200v-100h-400v1000h400v-100h-200v-800z" />
<glyph unicode="\" d="M0 600v300h100v-100h100v-100h100v-100h100v-100h100v-100h100v-100h100v-300h-100v100h-100v100h-100v100h-100v100h-100v100h-100v100h-100z" />
<glyph unicode="]" d="M400 100v800h-200v100h400v-1000h-400v100h200z" />
<glyph unicode="^" d="M0 800v100h100v100h100v100h100v100h100v-100h100v-100h100v-100h100v-100h-200v100h-100v100h-100v-100h-100v-100h-200z" />
<glyph unicode="_" d="M0 -200v100h800v-100h-800z" />
<glyph unicode="`" d="M400 1000h100v-100h-200v100h-100v200h200v-200z" />
<glyph unicode="a" d="M0 100v300h100v100h300v100h-300v100h400v-100h100v-500h100v-100h-200v100h-100v300h-200v-300h200v-100h-300v100h-100z" />
<glyph unicode="b" d="M0 900v100h300v-300h200v-100h100v-100h100v-400h-100v-100h-500v900h-100zM300 100h200v400h-100v100h-100v-500z" />
<glyph unicode="c" d="M0 100v500h100v100h500v-100h100v-100h-200v100h-300v-500h300v100h200v-100h-100v-100h-500v100h-100z" />
<glyph unicode="d" d="M0 100v400h100v100h100v100h200v200h-100v100h300v-900h100v-100h-200v100h-100v500h-100v-100h-100v-400h200v-100h-300v100h-100z" />
<glyph unicode="e" d="M0 100v500h100v100h500v-100h100v-200h-500v-300h300v100h200v-100h-100v-100h-500v100h-100zM200 500h300v100h-300v-100z" />
<glyph unicode="f" d="M0 0v100h100v400h-100v100h100v300h100v100h300v-100h100v-200h-100v100h-100v100h-100v-300h100v-100h-100v-400h100v-100h-400z" />
<glyph unicode="g" d="M0 -200v100h200v-100h200v200h-300v100h-100v500h100v100h300v-100h-200v-500h200v500h100v100h200v-100h-100v-800h-100v-100h-400v100h-100z" />
<glyph unicode="h" d="M0 0v100h100v800h-100v100h300v-400h100v-100h-100v-500h-300zM400 600v100h200v-100h100v-600h-200v600h-100z" />
<glyph unicode="i" d="M200 0v100h100v500h-100v100h300v-600h100v-100h-400zM300 1000h200v-200h-200v200z" />
<glyph unicode="j" d="M100 0h200v-200h200v800h-100v100h300v-900h-100v-100h-400v100h-100v200zM500 1000h200v-200h-200v200z" />
<glyph unicode="k" d="M0 0v100h100v800h-100v100h300v-500h100v100h100v100h200v-100h-100v-100h-100v-200h100v-100h100v-200h-200v200h-100v100h-100v-300h-300z" />
<glyph unicode="l" d="M500 100h100v-100h-400v100h100v800h-100v100h300v-900z" />
<glyph unicode="m" d="M0 0v700h300v-100h100v100h200v-100h100v-600h-200v500h-100v-400h-100v400h-100v-500h-200z" />
<glyph unicode="n" d="M0 600v100h200v-100h100v-600h-200v600h-100zM300 600v100h300v-100h100v-600h-200v600h-200z" />
<glyph unicode="o" d="M0 100v500h100v100h500v-100h100v-500h-100v-100h-500v100h-100zM200 100h300v500h-300v-500z" />
<glyph unicode="p" d="M0 -200h100v800h-100v100h200v-100h100v-500h200v500h-200v100h300v-100h100v-500h-100v-100h-300v-200h100v-100h-400v100z" />
<glyph unicode="q" d="M0 100v500h100v100h300v-100h-200v-500h200v500h100v100h200v-100h-100v-800h100v-100h-400v100h100v200h-300v100h-100z" />
<glyph unicode="r" d="M0 0v100h100v500h-100v100h200v-100h100v100h300v-100h100v-200h-200v200h-100v-100h-100v-400h100v-100h-400z" />
<glyph unicode="s" d="M0 100v100h200v-100h300v100h-100v100h-200v100h-100v100h-100v100h100v100h500v-100h100v-100h-200v100h-300v-100h100v-100h200v-100h100v-100h100v-100h-100v-100h-500v100h-100z" />
<glyph unicode="t" d="M0 600v100h200v200h100v100h100v-300h200v-100h-200v-500h100v100h200v-100h-100v-100h-300v100h-100v500h-200z" />
<glyph unicode="u" d="M0 100v600h200v-600h200v-100h-300v100h-100zM400 100v600h200v-600h100v-100h-200v100h-100z" />
<glyph unicode="v" d="M100 200v500h200v-500h200v500h200v-500h-100v-100h-100v-100h-200v100h-100v100h-100z" />
<glyph unicode="w" d="M0 100v600h200v-500h100v300h100v-300h100v500h200v-600h-100v-100h-200v100h-100v-100h-200v100h-100z" />
<glyph unicode="x" d="M0 0v100h100v100h100v300h-100v100h-100v100h200v-100h100v-100h100v100h100v100h200v-100h-100v-100h-100v-300h100v-100h100v-100h-200v100h-100v100h-100v-100h-100v-100h-200z" />
<glyph unicode="y" d="M0 100v600h200v-600h300v600h200v-800h-100v-100h-100v-100h-500v100h400v100h100v100h-400v100h-100z" />
<glyph unicode="z" d="M0 200h100v100h100v100h100v100h100v100h-200v-100h-200v200h700v-100h-100v-100h-100v-100h-100v-100h-100v-100h-100v-100h300v100h200v-200h-700v200z" />
<glyph unicode="{" d="M100 500v100h200v300h100v100h300v-100h-200v-300h-100v-100h100v-400h200v-100h-300v100h-100v400h-200z" />
<glyph unicode="|" d="M500 0h-200v500h200v-500zM500 600h-200v400h200v-400z" />
<glyph unicode="}" d="M100 0v100h200v400h100v100h-100v300h-200v100h300v-100h100v-300h200v-100h-200v-400h-100v-100h-300z" />
<glyph unicode="~" d="M0 800v100h100v100h300v-100h100v100h200v-100h-100v-100h-300v100h-100v-100h-200z" />
<glyph d="M0 100v400h100v100h100v100h100v100h100v-100h100v-100h100v-100h100v-400h-700zM200 200h300v300h-100v100h-100v-100h-100v-300z" />
<glyph unicode="&#xa0;" />
<glyph unicode="&#xa1;" d="M200 100v300h100v300h200v-300h100v-300h-100v-100h-200v100h-100zM300 1000h200v-200h-200v200z" />
<glyph unicode="&#xa2;" d="M200 200v100h-100v500h100v100h100v200h200v-200h100v-100h100v-100h-200v100h-200v-500h200v100h200v-100h-100v-100h-100v-200h-200v200h-100z" />
<glyph unicode="&#xa3;" d="M0 200h100v400h-100v100h100v300h100v100h300v-100h100v-200h-100v100h-100v100h-100v-300h100v-100h-100v-500h200v100h200v-100h-100v-100h-600v200z" />
<glyph unicode="&#xa4;" d="M0 0v100h100v100h-100v400h100v100h-100v100h200v-100h300v100h200v-100h-100v-100h100v-400h-100v-100h100v-100h-200v100h-300v-100h-200zM200 200h300v400h-300v-400z" />
<glyph unicode="&#xa5;" d="M200 700v100h-100v200h200v-200h200v200h200v-200h-100v-100h-100v-100h200v-100h-200v-100h200v-100h-200v-300h-200v300h-200v100h200v100h-200v100h200v100h-100z" />
<glyph unicode="&#xa6;" d="M500 0h-200v500h200v-500zM500 600h-200v400h200v-400z" />
<glyph unicode="&#xa7;" d="M0 0v100h200v-100h300v100h-100v100h-200v100h-100v100h-100v200h100v100h100v100h-100v100h-100v100h100v100h500v-100h100v-100h-200v100h-300v-100h100v-100h200v-100h100v-100h100v-200h-100v-100h-100v-100h100v-100h100v-100h-100v-100h-500v100h-100zM400 300v100 h100v200h-100v100h-100v-100h-100v-200h100v-100h100z" />
<glyph unicode="&#xa8;" d="M500 1100h200v-100h-200v100zM0 1000v100h200v-100h-200z" />
<glyph unicode="&#xa9;" d="M0 200v700h100v-700h-100zM100 200h500v-100h-500v100zM100 900v100h500v-100h-500zM200 400v300h100v-300h-100zM300 400h200v-100h-200v100zM300 700v100h200v-100h-200zM600 200v700h100v-700h-100z" />
<glyph unicode="&#xaa;" d="M100 500v100h600v-100h-600zM100 1000h100v100h400v-300h100v-100h-500v100h-100v200zM300 800h100v200h-100v-200z" />
<glyph unicode="&#xab;" d="M0 400v100h100v100h100v100h200v-100h-100v-100h-100v-100h100v-100h100v-100h-200v100h-100v100h-100zM400 500v100h100v100h200v-100h-100v-100h-100v-100h100v-100h100v-100h-200v100h-100v100h-100v100h100z" />
<glyph unicode="&#xac;" d="M0 500v100h700v-500h-200v400h-500z" />
<glyph unicode="&#xad;" d="M0 400v100h700v-100h-700z" />
<glyph unicode="&#xae;" d="M0 200v700h100v-700h-100zM200 300v500h200v-100h-100v-100h100v-100h-100v-200h-100zM400 500h100v-200h-100v200zM400 700h100v-100h-100v100zM600 200v-100h-500v100h500zM600 1000v-100h-500v100h500zM600 900h100v-700h-100v700z" />
<glyph unicode="&#xaf;" d="M0 1000v100h800v-100h-800z" />
<glyph unicode="&#xb0;" d="M100 1000h100v100h300v-100h100v-200h-100v-100h-300v100h-100v200zM300 800h100v200h-100v-200z" />
<glyph unicode="&#xb1;" d="M0 0v100h800v-100h-800zM100 500v100h200v200h200v-200h200v-100h-200v-200h-200v200h-200z" />
<glyph unicode="&#xb2;" d="M0 500v200h100v100h100v100h100v100h-100v-100h-200v100h100v100h300v-100h100v-100h-100v-100h-100v-100h-100v-100h200v100h100v-200h-500z" />
<glyph unicode="&#xb3;" d="M0 500v100h300v200h-200v100h200v100h-300v100h400v-100h100v-100h-100v-100h100v-200h-100v-100h-400z" />
<glyph unicode="&#xb4;" d="M400 1000v100h200v-100h-100v-100h-100v-100h-200v100h100v100h100z" />
<glyph unicode="&#xb5;" d="M0 -100v100h100v800h200v-500h200v500h200v-500h-100v-100h-300v-200h-100v-100h-200z" />
<glyph unicode="&#xb6;" d="M800 0h-200v900h-100v-900h-200v500h-200v100h-100v300h100v100h700v-1000zM200 600h100v300h-100v-300z" />
<glyph unicode="&#xb7;" d="M500 400v-100h-200v100h200z" />
<glyph unicode="&#xb8;" d="M400 0h-100v100h200v-100h100v-100h-100v-100h-400v100h300v100z" />
<glyph unicode="&#xb9;" d="M400 600h100v-100h-400v100h100v300h-100v100h100v100h200v-500z" />
<glyph unicode="&#xba;" d="M100 500v100h500v-100h-500zM100 1000h100v100h300v-100h100v-200h-100v-100h-300v100h-100v200zM300 800h100v200h-100v-200z" />
<glyph unicode="&#xbb;" d="M0 200v100h100v100h100v100h-100v100h-100v100h200v-100h100v-100h100v-100h-100v-100h-100v-100h-200zM400 500v100h-100v100h200v-100h100v-100h100v-100h-100v-100h-100v-100h-200v100h100v100h100v100h-100z" />
<glyph unicode="&#xbc;" d="M0 100v200h100v100h100v100h100v100h100v100h100v100h100v100h100v-200h-100v-100h-100v-100h-100v-100h-100v-100h-100v-100h-100v-100h-100zM0 600v500h200v-500h-200zM200 0v100h100v100h100v100h100v100h200v-600h-200v200h-300z" />
<glyph unicode="&#xbd;" d="M0 100v200h100v100h100v100h100v100h100v100h100v100h100v100h100v-200h-100v-100h-100v-100h-100v-100h-100v-100h-100v-100h-100v-100h-100zM0 600v500h200v-500h-200zM400 0v100h100v100h-200v100h300v-100h100v-100h-100v-100h-100v-100h200v-100h-500v100h100v100 h100z" />
<glyph unicode="&#xbe;" d="M0 100v200h100v100h100v100h100v100h100v100h100v100h100v100h100v-200h-100v-100h-100v-100h-100v-100h-100v-100h-100v-100h-100v-100h-100zM0 600v100h200v100h-100v100h100v100h-200v100h300v-100h100v-100h-100v-100h100v-100h-100v-100h-300zM400 200v-100h100v100 h-100zM400 300h100v100h200v-600h-200v200h-300v100h100v100h100v100z" />
<glyph unicode="&#xbf;" d="M0 100v300h100v100h100v200h200v-200h-100v-100h-100v-300h300v200h200v-200h-100v-100h-500v100h-100zM200 1000h200v-200h-200v200z" />
<glyph unicode="&#xc0;" d="M0 0v700h100v100h100v100h100v100h100v-100h100v-100h100v-100h100v-700h-200v400h-300v-400h-200zM200 500h300v200h-100v100h-100v-100h-100v-200zM400 1100v100h200v-100h100v-100h-200v100h-100z" />
<glyph unicode="&#xc1;" d="M0 0v700h100v100h100v100h100v100h100v-100h100v-100h100v-100h100v-700h-200v400h-300v-400h-200zM0 1000v100h100v100h200v-100h-100v-100h-200zM200 500h300v200h-100v100h-100v-100h-100v-200z" />
<glyph unicode="&#xc2;" d="M0 0v700h100v100h100v100h100v100h100v-100h100v-100h100v-100h100v-700h-200v400h-300v-400h-200zM0 1000v100h100v100h500v-100h100v-100h-200v100h-300v-100h-200zM200 500h300v200h-100v100h-100v-100h-100v-200z" />
<glyph unicode="&#xc3;" d="M0 0v600h100v100h100v100h100v100h100v-100h100v-100h100v-100h100v-600h-200v300h-300v-300h-200zM0 1000v100h100v100h300v-100h100v100h200v-100h-100v-100h-300v100h-100v-100h-200zM200 400h300v200h-100v100h-100v-100h-100v-200z" />
<glyph unicode="&#xc4;" d="M0 0v600h100v100h100v100h100v100h100v-100h100v-100h100v-100h100v-600h-200v300h-300v-300h-200zM0 1000v100h200v-100h-200zM200 400h300v200h-100v100h-100v-100h-100v-200zM500 1100h200v-100h-200v100z" />
<glyph unicode="&#xc5;" d="M0 0v600h100v100h100v100h300v-100h100v-100h100v-600h-200v300h-300v-300h-200zM200 400h300v200h-100v100h-100v-100h-100v-200zM200 1000h-100v100h100v100h300v-100h100v-100h-100v-100h-300v100zM400 1000v100h-100v-100h100z" />
<glyph unicode="&#xc6;" d="M0 0v800h100v100h100v100h500v-100h-100v-300h100v-100h-100v-400h100v-100h-300v500h-200v-500h-200zM200 600h200v300h-100v-100h-100v-200z" />
<glyph unicode="&#xc7;" d="M0 300v500h100v100h100v100h400v-100h100v-200h-100v100h-100v100h-200v-100h-100v-500h100v-100h200v100h100v100h100v-200h-100v-200h100v-100h-100v-100h-500v100h400v100h-100v100h-200v100h-100v100h-100z" />
<glyph unicode="&#xc8;" d="M0 0v100h100v700h-100v100h700v-300h-100v100h-100v100h-200v-300h100v100h100v-300h-100v100h-100v-300h200v100h100v100h100v-300h-700zM200 1100v100h200v-100h100v-100h-200v100h-100z" />
<glyph unicode="&#xc9;" d="M0 0v100h100v600h-100v100h700v-200h-200v100h-200v-200h300v-100h-300v-300h200v100h200v-200h-700zM200 1000v100h100v100h200v-100h-100v-100h-100v-100h-200v100h100z" />
<glyph unicode="&#xca;" d="M0 0v100h100v700h-100v100h700v-300h-100v100h-100v100h-200v-300h100v100h100v-300h-100v100h-100v-300h200v100h100v100h100v-300h-700zM200 1100v100h300v-100h100v-100h-200v100h-100v-100h-200v100h100z" />
<glyph unicode="&#xcb;" d="M0 0v100h100v700h-100v100h700v-300h-100v100h-100v100h-200v-300h100v100h100v-300h-100v100h-100v-300h200v100h100v100h100v-300h-700zM0 1000v100h200v-100h-200zM500 1100h200v-100h-200v100z" />
<glyph unicode="&#xcc;" d="M200 0v100h100v700h-100v100h400v-100h-100v-700h100v-100h-400zM300 1100h-100v100h200v-100h100v-100h-200v100z" />
<glyph unicode="&#xcd;" d="M200 0v100h100v700h-100v100h400v-100h-100v-700h100v-100h-400zM300 1100h100v100h200v-100h-100v-100h-200v100z" />
<glyph unicode="&#xce;" d="M100 1100h100v100h400v-100h100v-100h-200v100h-200v-100h-200v100zM200 0v100h100v700h-100v100h400v-100h-100v-700h100v-100h-400z" />
<glyph unicode="&#xcf;" d="M100 1100h200v-100h-200v100zM200 0v100h100v700h-100v100h400v-100h-100v-700h100v-100h-400zM500 1100h200v-100h-200v100z" />
<glyph unicode="&#xd0;" d="M0 0v100h100v400h-100v100h100v300h-100v100h500v-100h100v-100h100v-600h-100v-100h-100v-100h-500zM400 100v100h100v600h-100v100h-100v-300h100v-100h-100v-400h100z" />
<glyph unicode="&#xd1;" d="M0 0v900h200v-100h100v-100h100v-100h100v300h200v-900h-200v300h-100v100h-100v100h-100v-500h-200zM0 1000v100h100v100h300v-100h100v100h200v-100h-100v-100h-300v100h-100v-100h-200z" />
<glyph unicode="&#xd2;" d="M0 100v700h100v100h500v-100h100v-700h-100v-100h-500v100h-100zM300 1100h-100v100h200v-100h100v-100h-200v100zM200 100h300v700h-300v-700z" />
<glyph unicode="&#xd3;" d="M0 100v700h100v100h500v-100h100v-700h-100v-100h-500v100h-100zM300 1100v100h200v-100h-100v-100h-200v100h100zM200 100h300v700h-300v-700z" />
<glyph unicode="&#xd4;" d="M0 100v700h100v100h500v-100h100v-700h-100v-100h-500v100h-100zM200 100h300v700h-300v-700zM200 1100v100h300v-100h100v-100h-200v100h-100v-100h-200v100h100z" />
<glyph unicode="&#xd5;" d="M0 100v700h100v100h500v-100h100v-700h-100v-100h-500v100h-100zM0 1000v100h100v100h300v-100h100v100h200v-100h-100v-100h-300v100h-100v-100h-200zM200 100h300v700h-300v-700z" />
<glyph unicode="&#xd6;" d="M0 100v700h100v100h500v-100h100v-700h-100v-100h-500v100h-100zM0 1000v100h200v-100h-200zM200 100h300v700h-300v-700zM500 1100h200v-100h-200v100z" />
<glyph unicode="&#xd7;" d="M0 100v100h100v100h100v200h-100v100h-100v100h200v-100h100v-100h100v100h100v100h200v-100h-100v-100h-100v-200h100v-100h100v-100h-200v100h-100v100h-100v-100h-100v-100h-200z" />
<glyph unicode="&#xd8;" d="M0 100v800h100v100h400v100h100v-200h100v-800h-100v-100h-400v-100h-100v200h-100zM200 300h100v-200h200v600h-100v200h-200v-600zM400 300h-100v400h100v-400z" />
<glyph unicode="&#xd9;" d="M0 100v800h200v-800h300v800h200v-800h-100v-100h-500v100h-100zM300 1100h-100v100h200v-100h100v-100h-200v100z" />
<glyph unicode="&#xda;" d="M0 100v800h200v-800h300v800h200v-800h-100v-100h-500v100h-100zM300 1100v100h200v-100h-100v-100h-200v100h100z" />
<glyph unicode="&#xdb;" d="M0 100v800h200v-800h300v800h200v-800h-100v-100h-500v100h-100zM100 1100h100v100h300v-100h100v-100h-200v100h-100v-100h-200v100z" />
<glyph unicode="&#xdc;" d="M0 100v800h200v-800h300v800h200v-800h-100v-100h-500v100h-100zM0 1000v100h200v-100h-200zM500 1100h200v-100h-200v100z" />
<glyph unicode="&#xdd;" d="M200 0v100h100v300h-100v100h-100v400h200v-400h200v400h200v-400h-100v-100h-100v-300h100v-100h-400zM400 1100v100h200v-100h-100v-100h-200v100h100z" />
<glyph unicode="&#xde;" d="M0 0v100h100v800h-100v100h400v-100h-100v-100h300v-100h100v-400h-100v-100h-300v-100h100v-100h-400zM300 300h200v400h-200v-400z" />
<glyph unicode="&#xdf;" d="M0 0v900h100v100h400v-100h100v-300h-100v-100h100v-100h100v-300h-100v-100h-200v100h100v300h-100v100h-100v100h100v300h-200v-900h-200z" />
<glyph unicode="&#xe0;" d="M0 100v300h100v100h300v100h-300v100h400v-100h100v-500h100v-100h-200v100h-100v300h-200v-300h200v-100h-300v100h-100zM200 1000h-100v100h200v-100h100v-100h100v-100h-200v100h-100v100z" />
<glyph unicode="&#xe1;" d="M0 100v300h100v100h300v100h-300v100h400v-100h100v-500h100v-100h-200v100h-100v300h-200v-300h200v-100h-300v100h-100zM200 900v100h100v100h200v-100h-100v-100h-100v-100h-200v100h100z" />
<glyph unicode="&#xe2;" d="M0 100v300h100v100h300v100h-300v100h400v-100h100v-500h100v-100h-200v100h-100v300h-200v-300h200v-100h-300v100h-100zM200 900v100h100v100h100v-100h100v-100h100v-100h-200v100h-100v-100h-200v100h100z" />
<glyph unicode="&#xe3;" d="M0 100v300h100v100h300v100h-300v100h400v-100h100v-500h100v-100h-200v100h-100v300h-200v-300h200v-100h-300v100h-100zM0 800v100h100v100h300v-100h100v100h200v-100h-100v-100h-300v100h-100v-100h-200z" />
<glyph unicode="&#xe4;" d="M0 100v300h100v100h300v100h-300v100h400v-100h100v-500h100v-100h-200v100h-100v300h-200v-300h200v-100h-300v100h-100zM0 900v100h200v-100h-200zM400 900v100h200v-100h-200z" />
<glyph unicode="&#xe5;" d="M0 100v300h100v100h300v100h-300v100h400v-100h100v-500h100v-100h-200v100h-100v300h-200v-300h200v-100h-300v100h-100zM200 1000v100h300v-100h100v-100h-100v-100h-300v100h-100v100h100zM400 1000h-100v-100h100v100z" />
<glyph unicode="&#xe6;" d="M0 100v200h100v100h100v100h-100v100h-100v100h200v-100h200v-200h100v200h-100v100h200v-100h100v-300h-200v-200h200v-100h-300v100h-100v200h-100v-200h100v-100h-200v100h-100z" />
<glyph unicode="&#xe7;" d="M200 200v100h-100v400h100v100h400v-100h100v-100h-200v100h-200v-400h200v100h200v-100h-100v-200h100v-100h-100v-100h-400v100h300v100h-100v100h-200z" />
<glyph unicode="&#xe8;" d="M0 100v500h100v100h500v-100h100v-200h-500v-300h300v100h200v-100h-100v-100h-500v100h-100zM200 500h300v100h-300v-100zM200 1000h-100v100h200v-100h100v-100h100v-100h-200v100h-100v100z" />
<glyph unicode="&#xe9;" d="M0 100v500h100v100h500v-100h100v-200h-500v-300h300v100h200v-100h-100v-100h-500v100h-100zM200 500h300v100h-300v-100zM200 800v100h100v100h100v100h200v-100h-100v-100h-100v-100h-200z" />
<glyph unicode="&#xea;" d="M0 100v500h100v100h500v-100h100v-200h-500v-300h300v100h200v-100h-100v-100h-500v100h-100zM200 500h300v100h-300v-100zM200 900v100h100v100h100v-100h100v-100h100v-100h-200v100h-100v-100h-200v100h100z" />
<glyph unicode="&#xeb;" d="M0 100v500h100v100h500v-100h100v-200h-500v-300h300v100h200v-100h-100v-100h-500v100h-100zM0 900v100h200v-100h-200zM200 500h300v100h-300v-100zM500 900v100h200v-100h-200z" />
<glyph unicode="&#xec;" d="M100 1100h200v-100h100v-100h100v-100h-200v100h-100v100h-100v100zM200 0v100h100v500h-100v100h300v-600h100v-100h-400z" />
<glyph unicode="&#xed;" d="M200 0v100h100v500h-100v100h300v-600h100v-100h-400zM200 800v100h100v100h100v100h200v-100h-100v-100h-100v-100h-200z" />
<glyph unicode="&#xee;" d="M200 0v100h100v500h-100v100h300v-600h100v-100h-400zM200 900v100h100v100h200v-100h100v-100h100v-100h-200v100h-200v-100h-200v100h100z" />
<glyph unicode="&#xef;" d="M100 900v100h200v-100h-200zM200 0v100h100v500h-100v100h300v-600h100v-100h-400zM500 900v100h200v-100h-200z" />
<glyph unicode="&#xf0;" d="M200 100h-100v400h100v100h300v100h-100v100h-100v100h-100v100h200v-100h100v-100h100v-100h100v-600h-100v-100h-400v100zM200 700v100h100v-100h-100zM600 1000v-100h-100v100h100zM300 100h200v400h-200v-400z" />
<glyph unicode="&#xf1;" d="M0 600v100h200v-100h100v-600h-200v600h-100zM0 800v100h100v100h300v-100h100v100h200v-100h-100v-100h-300v100h-100v-100h-200zM600 700v-100h100v-600h-200v600h-200v100h300z" />
<glyph unicode="&#xf2;" d="M0 100v500h100v100h500v-100h100v-500h-100v-100h-500v100h-100zM200 100h300v500h-300v-500zM200 1000h-100v100h200v-100h100v-100h100v-100h-200v100h-100v100z" />
<glyph unicode="&#xf3;" d="M0 100v500h100v100h500v-100h100v-500h-100v-100h-500v100h-100zM200 100h300v500h-300v-500zM200 900v100h100v100h200v-100h-100v-100h-100v-100h-200v100h100z" />
<glyph unicode="&#xf4;" d="M0 100v500h100v100h500v-100h100v-500h-100v-100h-500v100h-100zM200 100h300v500h-300v-500zM200 900v100h100v100h100v-100h100v-100h100v-100h-200v100h-100v-100h-200v100h100z" />
<glyph unicode="&#xf5;" d="M0 100v500h100v100h500v-100h100v-500h-100v-100h-500v100h-100zM0 800v100h100v100h300v-100h100v100h200v-100h-100v-100h-300v100h-100v-100h-200zM200 100h300v500h-300v-500z" />
<glyph unicode="&#xf6;" d="M0 100v500h100v100h500v-100h100v-500h-100v-100h-500v100h-100zM0 900v100h200v-100h-200zM200 100h300v500h-300v-500zM500 900v100h200v-100h-200z" />
<glyph unicode="&#xf7;" d="M500 100h-200v200h200v-200zM100 400v100h600v-100h-600zM500 600h-200v200h200v-200z" />
<glyph unicode="&#xf8;" d="M0 100v500h100v100h500v-100h100v-500h-100v-100h-500v100h-100zM200 200v-100h300v300h-100v-100h-100v-100h-100zM200 400h100v100h100v100h-200v-200z" />
<glyph unicode="&#xf9;" d="M0 100v600h200v-600h200v-100h-300v100h-100zM200 1000h-100v100h200v-100h100v-100h100v-100h-200v100h-100v100zM400 100v600h200v-600h100v-100h-200v100h-100z" />
<glyph unicode="&#xfa;" d="M0 100v600h200v-600h200v-100h-300v100h-100zM200 900v100h100v100h200v-100h-100v-100h-100v-100h-200v100h100zM400 100v600h200v-600h100v-100h-200v100h-100z" />
<glyph unicode="&#xfb;" d="M0 100v600h200v-600h200v-100h-300v100h-100zM0 800v100h100v100h100v100h200v-100h100v-100h100v-100h-200v100h-200v-100h-200zM400 100v600h200v-600h100v-100h-200v100h-100z" />
<glyph unicode="&#xfc;" d="M0 100v600h200v-600h200v-100h-300v100h-100zM0 900v100h200v-100h-200zM400 100v600h200v-600h100v-100h-200v100h-100zM400 900v100h200v-100h-200z" />
<glyph unicode="&#xfd;" d="M0 100v600h200v-600h300v600h200v-800h-100v-100h-100v-100h-500v100h400v100h100v100h-400v100h-100zM200 800v100h100v100h100v100h200v-100h-100v-100h-100v-100h-200z" />
<glyph unicode="&#xfe;" d="M0 -200h100v1100h-100v100h300v-300h300v-100h100v-500h-100v-100h-300v-200h100v-100h-400v100zM300 100h200v500h-200v-500z" />
<glyph unicode="&#xff;" d="M0 100v600h200v-600h300v600h200v-800h-100v-100h-100v-100h-400v100h300v100h100v100h-400v100h-100zM0 900v100h200v-100h-200zM500 900v100h200v-100h-200z" />
<glyph unicode="&#x100;" d="M0 0v700h100v100h100v100h100v100h100v-100h100v-100h100v-100h100v-700h-200v400h-300v-400h-200zM200 500h300v200h-100v100h-100v-100h-100v-200zM600 1200v-100h-500v100h500z" />
<glyph unicode="&#x101;" d="M0 100v300h100v100h300v100h-300v100h400v-100h100v-500h100v-100h-200v100h-100v300h-200v-300h200v-100h-300v100h-100zM600 1000v-100h-500v100h500z" />
<glyph unicode="&#x102;" d="M0 0v600h100v100h100v100h100v100h100v-100h100v-100h100v-100h100v-600h-200v300h-300v-300h-200zM0 1100v100h200v-100h300v100h200v-100h-100v-100h-500v100h-100zM200 400h300v200h-100v100h-100v-100h-100v-200z" />
<glyph unicode="&#x103;" d="M0 100v300h100v100h300v100h-300v100h400v-100h100v-500h100v-100h-200v100h-100v300h-200v-300h200v-100h-300v100h-100zM0 900v100h200v-100h300v100h200v-100h-100v-100h-500v100h-100z" />
<glyph unicode="&#x104;" d="M0 0v700h100v100h100v100h100v100h100v-100h100v-100h100v-100h100v-700h-200v400h-300v-400h-200zM200 -200v100h100v100h200v-100h-100v-100h300v-100h-400v100h-100zM200 500h300v200h-100v100h-100v-100h-100v-200z" />
<glyph unicode="&#x105;" d="M0 100v300h100v100h300v100h-300v100h400v-100h100v-500h100v-100h-200v100h-100v300h-200v-300h200v-100h100v-100h-100v-100h300v-100h-400v100h-100v100h100v100h-200v100h-100z" />
<glyph unicode="&#x106;" d="M0 200v500h100v100h100v100h400v-100h100v-200h-100v100h-100v100h-200v-100h-100v-500h100v-100h200v100h100v100h100v-200h-100v-100h-400v100h-100v100h-100zM400 1100v100h200v-100h-100v-100h-200v100h100z" />
<glyph unicode="&#x107;" d="M0 100v500h100v100h500v-100h100v-100h-200v100h-300v-500h300v100h200v-100h-100v-100h-500v100h-100zM200 800v100h100v100h100v100h200v-100h-100v-100h-100v-100h-200z" />
<glyph unicode="&#x108;" d="M0 200v500h100v100h100v100h400v-100h100v-200h-100v100h-100v100h-200v-100h-100v-500h100v-100h200v100h100v100h100v-200h-100v-100h-400v100h-100v100h-100zM200 1000v100h100v100h300v-100h100v-100h-200v100h-100v-100h-200z" />
<glyph unicode="&#x109;" d="M0 100v500h100v100h500v-100h100v-100h-200v100h-300v-500h300v100h200v-100h-100v-100h-500v100h-100zM200 900v100h100v100h100v-100h100v-100h100v-100h-200v100h-100v-100h-200v100h100z" />
<glyph unicode="&#x10a;" d="M0 200v500h100v100h100v100h400v-100h100v-200h-100v100h-100v100h-200v-100h-100v-500h100v-100h200v100h100v100h100v-200h-100v-100h-400v100h-100v100h-100zM300 1200h200v-200h-200v200z" />
<glyph unicode="&#x10b;" d="M0 100v500h100v100h500v-100h100v-100h-200v100h-300v-500h300v100h200v-100h-100v-100h-500v100h-100zM300 1000h200v-200h-200v200z" />
<glyph unicode="&#x10c;" d="M0 200v500h100v100h100v100h400v-100h100v-200h-100v100h-100v100h-200v-100h-100v-500h100v-100h200v100h100v100h100v-200h-100v-100h-400v100h-100v100h-100zM200 1000v100h-100v100h200v-100h200v100h200v-100h-100v-100h-400z" />
<glyph unicode="&#x10d;" d="M0 100v500h100v100h500v-100h100v-100h-200v100h-300v-500h300v100h200v-100h-100v-100h-500v100h-100zM200 900h-100v100h200v-100h100v100h200v-100h-100v-100h-300v100z" />
<glyph unicode="&#x10e;" d="M0 0v100h100v700h-100v100h500v-100h100v-100h100v-500h-100v-100h-100v-100h-500zM200 1000v100h-100v100h200v-100h100v100h200v-100h-100v-100h-300zM400 100v100h100v500h-100v100h-100v-700h100z" />
<glyph unicode="&#x10f;" d="M0 100v300h100v100h100v100h200v200h-100v100h300v-800h100v-100h-200v100h-100v400h-100v-100h-100v-300h200v-100h-300v100h-100zM200 1000v100h-100v100h200v-100h100v100h200v-100h-100v-100h-300z" />
<glyph unicode="&#x110;" d="M0 0v100h100v400h-100v100h100v300h-100v100h500v-100h100v-100h100v-600h-100v-100h-100v-100h-500zM400 100v100h100v600h-100v100h-100v-300h100v-100h-100v-400h100z" />
<glyph unicode="&#x111;" d="M0 100v300h100v100h100v100h200v100h-300v100h300v200h200v-200h100v-100h-100v-600h100v-100h-200v100h-100v400h-100v-100h-100v-300h200v-100h-300v100h-100z" />
<glyph unicode="&#x112;" d="M0 0v100h100v800h-100v100h700v-300h-100v100h-100v100h-200v-300h100v100h100v-300h-100v100h-100v-400h200v100h100v100h100v-300h-700zM600 1200v-100h-500v100h500z" />
<glyph unicode="&#x113;" d="M0 100v500h100v100h500v-100h100v-200h-500v-300h300v100h200v-100h-100v-100h-500v100h-100zM200 500h300v100h-300v-100zM600 1000v-100h-500v100h500z" />
<glyph unicode="&#x114;" d="M0 0v100h100v700h-100v100h700v-300h-100v100h-100v100h-200v-300h100v100h100v-300h-100v100h-100v-300h200v100h100v100h100v-300h-700zM0 1100v100h200v-100h300v100h200v-100h-100v-100h-500v100h-100z" />
<glyph unicode="&#x115;" d="M0 100v500h100v100h500v-100h100v-200h-500v-300h300v100h200v-100h-100v-100h-500v100h-100zM0 900v100h200v-100h300v100h200v-100h-100v-100h-500v100h-100zM200 500h300v100h-300v-100z" />
<glyph unicode="&#x116;" d="M0 0v100h100v700h-100v100h700v-300h-100v100h-100v100h-200v-300h100v100h100v-300h-100v100h-100v-300h200v100h100v100h100v-300h-700zM300 1200h200v-200h-200v200z" />
<glyph unicode="&#x117;" d="M0 100v500h100v100h500v-100h100v-200h-500v-300h300v100h200v-100h-100v-100h-500v100h-100zM200 500h300v100h-300v-100zM300 1000h200v-200h-200v200z" />
<glyph unicode="&#x118;" d="M0 0v100h100v800h-100v100h700v-300h-100v100h-100v100h-200v-300h100v100h100v-300h-100v100h-100v-400h200v100h100v100h100v-300h-200v-100h-100v-100h300v-100h-400v100h-100v100h100v100h-300z" />
<glyph unicode="&#x119;" d="M0 100v500h100v100h500v-100h100v-200h-500v-300h300v100h200v-100h-100v-100h-200v-100h-100v-100h300v-100h-400v100h-100v100h100v100h-100v100h-100zM200 500h300v100h-300v-100z" />
<glyph unicode="&#x11a;" d="M0 0v100h100v700h-100v100h700v-300h-100v100h-100v100h-200v-300h100v100h100v-300h-100v100h-100v-300h200v100h100v100h100v-300h-700zM200 1000v100h-100v100h200v-100h100v100h200v-100h-100v-100h-300z" />
<glyph unicode="&#x11b;" d="M0 100v500h100v100h500v-100h100v-200h-500v-300h300v100h200v-100h-100v-100h-500v100h-100zM200 500h300v100h-300v-100zM200 900h-100v100h200v-100h200v100h200v-100h-100v-100h-400v100z" />
<glyph unicode="&#x11c;" d="M0 200v500h100v100h100v100h400v-100h100v-200h-100v100h-100v100h-200v-100h-100v-500h100v-100h200v-100h-300v100h-100v100h-100zM200 1000v100h100v100h300v-100h100v-100h-200v100h-100v-100h-200zM600 100h-100v200h-200v100h400v-400h-100v100z" />
<glyph unicode="&#x11d;" d="M0 -200v100h200v-100h200v200h-300v100h-100v500h100v100h300v-100h-200v-500h200v500h100v100h200v-100h-100v-800h-100v-100h-400v100h-100zM200 900v100h100v100h100v-100h100v-100h100v-100h-200v100h-100v-100h-200v100h100z" />
<glyph unicode="&#x11e;" d="M0 200v500h100v100h100v100h400v-100h100v-200h-100v100h-100v100h-200v-100h-100v-500h100v-100h200v-100h-300v100h-100v100h-100zM200 1000v100h-100v100h200v-100h200v100h200v-100h-100v-100h-400zM600 100h-100v200h-200v100h400v-400h-100v100z" />
<glyph unicode="&#x11f;" d="M0 -200v100h200v-100h200v200h-300v100h-100v500h100v100h300v-100h-200v-500h200v500h100v100h200v-100h-100v-800h-100v-100h-400v100h-100zM0 900v100h200v-100h300v100h200v-100h-100v-100h-500v100h-100z" />
<glyph unicode="&#x120;" d="M0 200v500h100v100h100v100h400v-100h100v-200h-100v100h-100v100h-200v-100h-100v-500h100v-100h200v-100h-300v100h-100v100h-100zM600 100h-100v200h-200v100h400v-400h-100v100zM300 1200h200v-200h-200v200z" />
<glyph unicode="&#x121;" d="M0 -200v100h200v-100h200v200h-300v100h-100v500h100v100h300v-100h-200v-500h200v500h100v100h200v-100h-100v-800h-100v-100h-400v100h-100zM300 1000h200v-200h-200v200z" />
<glyph unicode="&#x122;" d="M0 200v600h100v100h100v100h400v-100h100v-200h-100v100h-100v100h-200v-100h-100v-600h100v-100h200v-200h100v-100h-100v-100h-400v100h300v100h-100v100h-100v100h-100v100h-100zM600 100h-100v300h-200v100h400v-500h-100v100z" />
<glyph unicode="&#x123;" d="M0 -200v100h200v-100h200v200h-300v100h-100v500h100v100h300v-100h-200v-500h200v500h100v100h200v-100h-100v-800h-100v-100h-400v100h-100zM200 900v100h100v100h400v-100h-300v-100h100v-100h-200v100h-100z" />
<glyph unicode="&#x124;" d="M0 0v900h200v-400h300v400h200v-900h-200v400h-300v-400h-200zM100 1100h100v100h300v-100h100v-100h-200v100h-100v-100h-200v100z" />
<glyph unicode="&#x125;" d="M0 0v100h100v700h-100v100h300v-400h100v-100h-100v-400h-300zM200 1100v100h300v-100h100v-100h-200v100h-100v-100h-200v100h100zM400 500v100h200v-100h100v-500h-200v500h-100z" />
<glyph unicode="&#x126;" d="M0 700v100h100v200h200v-200h200v200h200v-200h100v-100h-100v-700h-200v500h-200v-500h-200v700h-100zM300 700v-100h200v100h-200z" />
<glyph unicode="&#x127;" d="M0 0v100h100v600h-100v100h100v100h-100v100h300v-200h200v-100h-200v-200h100v-100h-100v-400h-300zM400 500v100h200v-100h100v-500h-200v500h-100z" />
<glyph unicode="&#x128;" d="M0 1000v100h100v100h300v-100h100v100h200v-100h-100v-100h-300v100h-100v-100h-200zM200 0v100h100v700h-100v100h400v-100h-100v-700h100v-100h-400z" />
<glyph unicode="&#x129;" d="M0 800v100h100v100h300v-100h100v100h200v-100h-100v-100h-300v100h-100v-100h-200zM200 0v100h100v500h-100v100h300v-600h100v-100h-400z" />
<glyph unicode="&#x12a;" d="M100 1100v100h600v-100h-600zM200 0v100h100v800h-100v100h400v-100h-100v-800h100v-100h-400z" />
<glyph unicode="&#x12b;" d="M100 900v100h500v-100h-500zM200 0v100h100v500h-100v100h300v-600h100v-100h-400z" />
<glyph unicode="&#x12c;" d="M100 1100v100h200v-100h200v100h200v-100h-100v-100h-400v100h-100zM200 0v100h100v700h-100v100h400v-100h-100v-700h100v-100h-400z" />
<glyph unicode="&#x12d;" d="M100 900v100h200v-100h200v100h200v-100h-100v-100h-400v100h-100zM200 0v100h100v500h-100v100h300v-600h100v-100h-400z" />
<glyph unicode="&#x12e;" d="M200 0v100h100v800h-100v100h400v-100h-100v-800h100v-100h-100v-100h-100v-100h300v-100h-400v100h-100v100h100v100h-100z" />
<glyph unicode="&#x12f;" d="M200 0v100h100v500h-100v100h300v-600h100v-100h-100v-100h-100v-100h300v-100h-400v100h-100v100h100v100h-100zM300 1000h200v-200h-200v200z" />
<glyph unicode="&#x130;" d="M200 0v100h100v700h-100v100h400v-100h-100v-700h100v-100h-400zM300 1200h200v-200h-200v200z" />
<glyph unicode="&#x131;" d="M500 100h100v-100h-400v100h100v500h-100v100h300v-600z" />
<glyph unicode="&#x132;" d="M0 0v1000h200v-1000h-200zM300 100v300h100v-300h-100zM400 100h100v800h-100v100h300v-900h-100v-100h-200v100z" />
<glyph unicode="&#x133;" d="M0 0v700h200v-700h-200zM0 1000h200v-200h-200v200zM200 0h200v-200h100v800h-100v100h300v-900h-100v-100h-300v100h-100v200zM500 1000h200v-200h-200v200z" />
<glyph unicode="&#x134;" d="M0 100v200h200v-200h200v700h-100v100h400v-100h-100v-700h-100v-100h-400v100h-100zM200 1000v100h100v100h300v-100h100v-100h-200v100h-100v-100h-200z" />
<glyph unicode="&#x135;" d="M0 0h200v-200h200v800h-100v100h300v-900h-100v-100h-400v100h-100v200zM200 800v100h100v100h100v100h100v-100h100v-100h100v-100h-200v100h-100v-100h-200z" />
<glyph unicode="&#x136;" d="M0 0v100h100v800h-100v100h300v-400h100v100h100v300h200v-300h-100v-100h-100v-200h100v-100h100v-300h-200v300h-100v100h-100v-400h-300zM400 -100h-100v100h200v-100h100v-100h-100v-100h-400v100h300v100z" />
<glyph unicode="&#x137;" d="M0 0v100h100v800h-100v100h300v-500h100v100h100v100h200v-100h-100v-100h-100v-200h100v-100h100v-200h-200v200h-100v100h-100v-300h-300zM400 -100h-100v100h200v-100h100v-100h-100v-100h-400v100h300v100z" />
<glyph unicode="&#x138;" d="M0 0v100h100v500h-100v100h300v-300h100v100h100v200h200v-200h-100v-100h-100v-100h100v-100h100v-200h-200v200h-100v100h-100v-300h-300z" />
<glyph unicode="&#x139;" d="M0 0v100h100v800h-100v100h400v-100h-100v-800h200v100h100v100h100v-300h-700zM400 900h100v100h200v-100h-100v-100h-200v100z" />
<glyph unicode="&#x13a;" d="M0 0v100h100v800h-100v100h300v-900h100v-100h-400zM400 800v100h100v100h200v-100h-100v-100h-200z" />
<glyph unicode="&#x13b;" d="M0 0v100h100v800h-100v100h400v-100h-100v-800h200v100h100v100h100v-300h-200v-100h100v-100h-100v-100h-400v100h300v100h-100v100h-300z" />
<glyph unicode="&#x13c;" d="M100 -200h300v100h-100v100h-100v100h100v800h-100v100h300v-900h100v-100h-100v-100h100v-100h-100v-100h-400v100z" />
<glyph unicode="&#x13d;" d="M0 0v100h100v800h-100v100h300v-900h200v100h100v100h100v-300h-700zM400 1000h-100v100h200v-100h100v100h200v-100h-100v-100h-300v100z" />
<glyph unicode="&#x13e;" d="M0 0v100h100v800h-100v100h300v-900h100v-100h-400zM800 1000h-100v-100h-300v100h-100v100h200v-100h100v100h200v-100z" />
<glyph unicode="&#x13f;" d="M0 0v100h100v800h-100v100h400v-100h-100v-800h200v100h100v100h100v-300h-700zM500 500v200h200v-200h-200z" />
<glyph unicode="&#x140;" d="M100 0v100h100v800h-100v100h300v-900h100v-100h-400zM500 400v200h200v-200h-200z" />
<glyph unicode="&#x141;" d="M0 0v100h100v200h-100v200h100v400h-100v100h400v-100h-100v-200h100v100h100v100h100v-200h-100v-100h-100v-100h-100v-400h200v100h100v100h100v-300h-700z" />
<glyph unicode="&#x142;" d="M200 200h-100v200h100v100h100v400h-100v100h300v-200h100v100h100v-200h-100v-100h-100v-500h100v-100h-400v100h100v200h-100v-100z" />
<glyph unicode="&#x143;" d="M0 0v900h200v-100h100v-100h100v-100h100v300h200v-900h-200v300h-100v100h-100v100h-100v-500h-200zM400 1100v100h200v-100h-100v-100h-200v100h100z" />
<glyph unicode="&#x144;" d="M0 600v100h200v-100h100v-600h-200v600h-100zM200 800v100h100v100h100v100h200v-100h-100v-100h-100v-100h-200zM600 700v-100h100v-600h-200v600h-200v100h300z" />
<glyph unicode="&#x145;" d="M0 0v1000h200v-100h100v-100h100v-100h100v300h200v-1000h-200v400h-100v100h-100v100h-100v-600h-200zM400 -100h-100v100h200v-100h100v-100h-100v-100h-400v100h300v100z" />
<glyph unicode="&#x146;" d="M0 600v100h200v-100h100v-600h-200v600h-100zM400 -100h-100v100h200v-100h100v-100h-100v-100h-400v100h300v100zM600 700v-100h100v-600h-200v600h-200v100h300z" />
<glyph unicode="&#x147;" d="M0 0v900h200v-100h100v-100h100v-100h100v300h200v-900h-200v300h-100v100h-100v100h-100v-500h-200zM200 1000v100h-100v100h200v-100h100v100h200v-100h-100v-100h-300z" />
<glyph unicode="&#x148;" d="M0 600v100h200v-100h100v-600h-200v600h-100zM200 900h-100v100h200v-100h100v100h200v-100h-100v-100h-300v100zM600 700v-100h100v-600h-200v600h-200v100h300z" />
<glyph unicode="&#x149;" d="M100 1200h200v-300h-100v-100h-200v100h100v300zM0 600v100h200v-100h100v-600h-200v600h-100zM300 600v100h300v-100h100v-600h-200v600h-200z" />
<glyph unicode="&#x14a;" d="M0 0v1000h200v-100h100v-100h100v-100h100v300h200v-1200h-100v-100h-300v100h200v600h-100v100h-100v100h-100v-600h-200z" />
<glyph unicode="&#x14b;" d="M0 600v100h200v-100h100v-600h-200v600h-100zM300 -200h200v800h-200v100h300v-100h100v-800h-100v-100h-300v100z" />
<glyph unicode="&#x14c;" d="M0 100v800h100v100h500v-100h100v-800h-100v-100h-500v100h-100zM100 1100v100h500v-100h-500zM200 100h300v800h-300v-800z" />
<glyph unicode="&#x14d;" d="M0 100v500h100v100h500v-100h100v-500h-100v-100h-500v100h-100zM100 900v100h500v-100h-500zM200 100h300v500h-300v-500z" />
<glyph unicode="&#x14e;" d="M0 100v700h100v100h500v-100h100v-700h-100v-100h-500v100h-100zM0 1100v100h200v-100h300v100h200v-100h-100v-100h-500v100h-100zM200 100h300v700h-300v-700z" />
<glyph unicode="&#x14f;" d="M0 100v500h100v100h500v-100h100v-500h-100v-100h-500v100h-100zM0 900v100h200v-100h300v100h200v-100h-100v-100h-500v100h-100zM200 100h300v500h-300v-500z" />
<glyph unicode="&#x150;" d="M0 100v700h100v100h500v-100h100v-700h-100v-100h-500v100h-100zM200 100h300v700h-300v-700zM200 1100v100h200v-100h-100v-100h-200v100h100zM400 1000v100h100v100h200v-100h-100v-100h-200z" />
<glyph unicode="&#x151;" d="M0 100v500h100v100h500v-100h100v-500h-100v-100h-500v100h-100zM200 100h300v500h-300v-500zM200 900v100h200v-100h-100v-100h-200v100h100zM400 900h100v100h200v-100h-100v-100h-200v100z" />
<glyph unicode="&#x152;" d="M0 100v800h100v100h600v-100h-100v-300h100v-100h-100v-400h100v-100h-600v100h-100zM200 100h200v800h-200v-800z" />
<glyph unicode="&#x153;" d="M0 100v500h100v100h200v-100h-100v-500h100v-100h-200v100h-100zM400 100h-100v500h100v-200h100v200h-100v100h200v-100h100v-300h-200v-200h200v-100h-300v100z" />
<glyph unicode="&#x154;" d="M0 0v100h100v700h-100v100h600v-100h100v-300h-100v-200h100v-300h-200v300h-100v100h-100v-400h-300zM200 1000v100h100v100h200v-100h-100v-100h-200zM300 500h200v300h-200v-300z" />
<glyph unicode="&#x155;" d="M0 0v100h100v500h-100v100h200v-100h100v100h300v-100h100v-200h-200v200h-100v-100h-100v-400h100v-100h-400zM200 800v100h100v100h100v100h200v-100h-100v-100h-100v-100h-200z" />
<glyph unicode="&#x156;" d="M0 0v100h100v800h-100v100h600v-100h100v-300h-100v-200h100v-400h-200v400h-100v100h-100v-500h-300zM400 -100h-100v100h200v-100h100v-100h-100v-100h-400v100h300v100zM300 600h200v300h-200v-300z" />
<glyph unicode="&#x157;" d="M0 0v100h100v500h-100v100h200v-100h100v100h300v-100h100v-200h-200v200h-100v-100h-100v-400h100v-100h100v-100h100v-100h-100v-100h-400v100h300v100h-100v100h-300z" />
<glyph unicode="&#x158;" d="M0 0v100h100v700h-100v100h600v-100h100v-300h-100v-200h100v-300h-200v300h-100v100h-100v-400h-300zM200 1000v100h-100v100h200v-100h100v100h200v-100h-100v-100h-300zM300 500h200v300h-200v-300z" />
<glyph unicode="&#x159;" d="M0 0v100h100v500h-100v100h200v-100h100v100h300v-100h100v-200h-200v200h-100v-100h-100v-400h100v-100h-400zM200 900h-100v100h200v-100h100v100h200v-100h-100v-100h-300v100z" />
<glyph unicode="&#x15a;" d="M0 100v200h200v-200h300v200h-100v100h-200v100h-100v100h-100v200h100v100h500v-100h100v-200h-200v200h-300v-200h100v-100h200v-100h100v-100h100v-200h-100v-100h-500v100h-100zM200 1000v100h100v100h200v-100h-100v-100h-200z" />
<glyph unicode="&#x15b;" d="M0 100v100h200v-100h300v100h-100v100h-200v100h-100v100h-100v100h100v100h500v-100h100v-100h-200v100h-300v-100h100v-100h200v-100h100v-100h100v-100h-100v-100h-500v100h-100zM400 900v100h200v-100h-100v-100h-200v100h100z" />
<glyph unicode="&#x15c;" d="M0 100v200h200v-200h300v200h-100v100h-200v100h-100v100h-100v200h100v100h500v-100h100v-200h-200v200h-300v-200h100v-100h200v-100h100v-100h100v-200h-100v-100h-500v100h-100zM200 1100v100h300v-100h100v-100h-200v100h-100v-100h-200v100h100z" />
<glyph unicode="&#x15d;" d="M0 100v100h200v-100h300v100h-100v100h-200v100h-100v100h-100v100h100v100h500v-100h100v-100h-200v100h-300v-100h100v-100h200v-100h100v-100h100v-100h-100v-100h-500v100h-100zM400 1000h100v-100h100v-100h-200v100h-100v-100h-200v100h100v100h100v100h100v-100z " />
<glyph unicode="&#x15e;" d="M0 100v200h200v-200h300v300h-100v100h-200v100h-100v100h-100v200h100v100h500v-100h100v-200h-200v200h-300v-200h100v-100h200v-100h100v-100h100v-300h-100v-100h-100v-100h100v-100h-100v-100h-400v100h300v100h-100v100h-200v100h-100z" />
<glyph unicode="&#x15f;" d="M0 100v100h200v-100h300v100h-100v100h-200v100h-100v100h-100v100h100v100h500v-100h100v-100h-200v100h-300v-100h100v-100h200v-100h100v-100h100v-100h-100v-100h-100v-100h100v-100h-100v-100h-400v100h300v100h-100v100h-200v100h-100z" />
<glyph unicode="&#x160;" d="M0 100v100h200v-100h300v200h-100v100h-200v100h-100v100h-100v200h100v100h500v-100h100v-100h-200v100h-300v-200h100v-100h200v-100h100v-100h100v-200h-100v-100h-500v100h-100zM200 1000v100h-100v100h200v-100h100v100h200v-100h-100v-100h-300z" />
<glyph unicode="&#x161;" d="M0 100v100h200v-100h300v100h-100v100h-200v100h-100v100h-100v100h100v100h500v-100h100v-100h-200v100h-300v-100h100v-100h200v-100h100v-100h100v-100h-100v-100h-500v100h-100zM200 900h-100v100h200v-100h100v100h200v-100h-100v-100h-300v100z" />
<glyph unicode="&#x162;" d="M200 0v100h100v700h-100v-100h-100v300h600v-300h-100v100h-100v-700h100v-100h-100v-100h100v-100h-100v-100h-400v100h300v100h-100v100h-100z" />
<glyph unicode="&#x163;" d="M0 600v100h200v200h100v100h100v-300h200v-100h-200v-500h100v100h200v-100h-100v-100h-100v-100h100v-100h-100v-100h-400v100h300v100h-100v200h-100v500h-200z" />
<glyph unicode="&#x164;" d="M200 0v100h100v600h-100v-100h-100v300h600v-300h-100v100h-100v-600h100v-100h-400zM200 1000v100h-100v100h200v-100h200v100h200v-100h-100v-100h-400z" />
<glyph unicode="&#x165;" d="M0 500v100h200v200h100v100h100v-300h200v-100h-200v-400h100v100h200v-100h-100v-100h-300v100h-100v400h-200zM200 1000v100h-100v100h200v-100h100v100h200v-100h-100v-100h-300z" />
<glyph unicode="&#x166;" d="M100 400v100h200v300h-100v-100h-100v300h600v-300h-100v100h-100v-300h200v-100h-200v-300h100v-100h-400v100h100v300h-200z" />
<glyph unicode="&#x167;" d="M0 400v100h200v100h-200v100h200v200h100v100h100v-300h200v-100h-200v-100h200v-100h-200v-300h100v100h200v-100h-100v-100h-300v100h-100v300h-200z" />
<glyph unicode="&#x168;" d="M0 100v800h200v-800h300v800h200v-800h-100v-100h-500v100h-100zM0 1000v100h100v100h300v-100h100v100h200v-100h-100v-100h-300v100h-100v-100h-200z" />
<glyph unicode="&#x169;" d="M0 100v600h200v-600h200v-100h-300v100h-100zM0 800v100h100v100h300v-100h100v100h200v-100h-100v-100h-300v100h-100v-100h-200zM400 100v600h200v-600h100v-100h-200v100h-100z" />
<glyph unicode="&#x16a;" d="M0 100v900h200v-900h300v900h200v-900h-100v-100h-500v100h-100zM0 1100v100h700v-100h-700z" />
<glyph unicode="&#x16b;" d="M0 100v600h200v-600h200v-100h-300v100h-100zM0 900v100h600v-100h-600zM400 100v600h200v-600h100v-100h-200v100h-100z" />
<glyph unicode="&#x16c;" d="M0 100v800h200v-800h300v800h200v-800h-100v-100h-500v100h-100zM100 1100h-100v100h200v-100h300v100h200v-100h-100v-100h-500v100z" />
<glyph unicode="&#x16d;" d="M0 100v600h200v-600h200v-100h-300v100h-100zM0 900v100h200v-100h300v100h200v-100h-100v-100h-500v100h-100zM400 100v600h200v-600h100v-100h-200v100h-100z" />
<glyph unicode="&#x16e;" d="M0 100v700h200v-700h300v700h200v-700h-100v-100h-500v100h-100zM200 1000h-100v100h100v100h300v-100h100v-100h-100v-100h-300v100zM400 1000v100h-100v-100h100z" />
<glyph unicode="&#x16f;" d="M0 100v600h200v-600h200v-100h-300v100h-100zM0 900v100h100v100h400v-100h100v-100h-100v-100h-400v100h-100zM200 1000v-100h200v100h-200zM400 100v600h200v-600h100v-100h-200v100h-100z" />
<glyph unicode="&#x170;" d="M0 100v800h200v-800h300v800h200v-800h-100v-100h-500v100h-100zM200 1100v100h200v-100h-100v-100h-200v100h100zM400 1000v100h100v100h200v-100h-100v-100h-200z" />
<glyph unicode="&#x171;" d="M0 100v600h200v-600h200v-100h-300v100h-100zM200 900v100h200v-100h-100v-100h-200v100h100zM400 100v600h200v-600h100v-100h-200v100h-100zM400 900h100v100h200v-100h-100v-100h-200v100z" />
<glyph unicode="&#x172;" d="M0 100v900h200v-900h300v900h200v-900h-100v-100h-100v-100h-100v-100h300v-100h-400v100h-100v100h100v100h-200v100h-100z" />
<glyph unicode="&#x173;" d="M0 100v600h200v-600h200v-100h100v-100h-100v-100h300v-100h-400v100h-100v100h100v100h-200v100h-100zM400 100v600h200v-600h100v-100h-200v100h-100z" />
<glyph unicode="&#x174;" d="M0 100v800h200v-600h100v300h100v-300h100v600h200v-800h-100v-100h-200v200h-100v-200h-200v100h-100zM200 1100v100h300v-100h100v-100h-200v100h-100v-100h-200v100h100z" />
<glyph unicode="&#x175;" d="M0 100v600h200v-500h100v300h100v-300h100v500h200v-600h-100v-100h-200v100h-100v-100h-200v100h-100zM200 900v100h100v100h100v-100h100v-100h100v-100h-200v100h-100v-100h-200v100h100z" />
<glyph unicode="&#x176;" d="M200 0v100h100v300h-100v100h-100v400h200v-400h200v400h200v-400h-100v-100h-100v-300h100v-100h-400zM200 1100v100h400v-100h100v-100h-200v100h-200v-100h-200v100h100z" />
<glyph unicode="&#x177;" d="M0 100v600h200v-600h300v600h200v-800h-100v-100h-100v-100h-500v100h400v100h100v100h-400v100h-100zM200 900v100h100v100h100v-100h100v-100h100v-100h-200v100h-100v-100h-200v100h100z" />
<glyph unicode="&#x178;" d="M200 0v100h100v300h-100v100h-100v400h200v-400h200v400h200v-400h-100v-100h-100v-300h100v-100h-400zM100 1100h200v-100h-200v100zM500 1100h200v-100h-200v100z" />
<glyph unicode="&#x179;" d="M0 0v300h100v100h100v100h100v100h100v100h100v100h-300v-100h-100v-100h-100v300h700v-200h-100v-100h-100v-100h-100v-100h-100v-100h-100v-200h300v100h100v100h100v-300h-700zM200 1000v100h100v100h200v-100h-100v-100h-200z" />
<glyph unicode="&#x17a;" d="M0 200h100v100h100v100h100v100h100v100h-200v-100h-200v200h700v-100h-100v-100h-100v-100h-100v-100h-100v-100h-100v-100h300v100h200v-200h-700v200zM200 800v100h100v100h100v100h200v-100h-100v-100h-100v-100h-200z" />
<glyph unicode="&#x17b;" d="M0 0v300h100v100h100v100h100v100h100v100h100v100h-300v-100h-100v-100h-100v300h700v-200h-100v-100h-100v-100h-100v-100h-100v-100h-100v-200h300v100h100v100h100v-300h-700zM300 1200h200v-200h-200v200z" />
<glyph unicode="&#x17c;" d="M0 200h100v100h100v100h100v100h100v100h-200v-100h-200v200h700v-100h-100v-100h-100v-100h-100v-100h-100v-100h-100v-100h300v100h200v-200h-700v200zM300 1000h200v-200h-200v200z" />
<glyph unicode="&#x17d;" d="M0 0v300h100v100h100v100h100v100h100v100h100v100h-300v-100h-100v-100h-100v300h700v-200h-100v-100h-100v-100h-100v-100h-100v-100h-100v-200h300v100h100v100h100v-300h-700zM200 1000v100h-100v100h200v-100h100v100h200v-100h-100v-100h-300z" />
<glyph unicode="&#x17e;" d="M0 200h100v100h100v100h100v100h100v100h-200v-100h-200v200h700v-100h-100v-100h-100v-100h-100v-100h-100v-100h-100v-100h300v100h200v-200h-700v200zM200 900h-100v100h200v-100h100v100h200v-100h-100v-100h-300v100z" />
<glyph unicode="&#x17f;" d="M100 0v100h100v800h100v100h300v-100h100v-200h-100v100h-100v100h-100v-800h100v-100h-400z" />
<glyph unicode="&#x192;" d="M0 -100v100h200v-100h100v600h-200v100h200v400h100v100h300v-100h100v-100h-200v100h-100v-400h200v-100h-200v-600h-100v-100h-300v100h-100z" />
<glyph unicode="&#x1a1;" d="M0 100v500h100v100h600v-100h-200v-500h-100v-100h-300v100h-100zM200 100h100v500h-100v-500z" />
<glyph unicode="&#x1b7;" d="M0 100v100h200v-100h300v400h-300v100h100v100h100v100h100v100h-300v-100h-200v200h700v-200h-100v-100h-100v-100h100v-100h100v-400h-100v-100h-500v100h-100z" />
<glyph unicode="&#x1fa;" d="M0 0v600h100v100h100v100h300v-100h100v-100h100v-600h-200v300h-300v-300h-200zM200 400h300v200h-100v100h-100v-100h-100v-200zM200 1000h-100v100h100v100h300v-100h100v-100h-100v-100h-300v100zM400 1000v100h-100v-100h100zM600 1100v100h100v-100h-100z" />
<glyph unicode="&#x1fb;" d="M0 100v300h100v100h300v100h-300v100h400v-100h100v-500h100v-100h-200v100h-100v300h-200v-300h200v-100h-300v100h-100zM200 1000v100h200v100h200v-100h-100v-100h100v-100h-100v-100h-300v100h-100v100h100zM400 1000h-100v-100h100v100z" />
<glyph unicode="&#x1fc;" d="M0 0v700h100v100h100v100h500v-100h-100v-300h100v-100h-100v-300h100v-100h-300v400h-200v-400h-200zM200 500h200v300h-100v-100h-100v-200zM400 1100v100h200v-100h-100v-100h-200v100h100z" />
<glyph unicode="&#x1fd;" d="M0 100v200h100v100h100v100h-100v100h-100v100h200v-100h200v-200h100v200h-100v100h200v-100h100v-300h-200v-200h200v-100h-300v100h-100v200h-100v-200h100v-100h-200v100h-100zM200 800v100h100v100h100v100h200v-100h-100v-100h-100v-100h-200z" />
<glyph unicode="&#x1fe;" d="M0 100v700h100v100h400v100h100v-200h100v-700h-100v-100h-400v-100h-100v200h-100zM200 300h100v-200h200v500h-100v200h-200v-500zM200 1000v100h100v100h200v-100h-100v-100h-200zM400 300h-100v300h100v-300z" />
<glyph unicode="&#x1ff;" d="M0 100v500h100v100h500v-100h100v-500h-100v-100h-500v100h-100zM200 200v-100h300v300h-100v-100h-100v-100h-100zM200 400h100v100h100v100h-200v-200zM200 900v100h100v100h200v-100h-100v-100h-100v-100h-200v100h100z" />
<glyph unicode="&#x218;" d="M0 100v200h200v-200h300v300h-100v100h-200v100h-100v100h-100v200h100v100h500v-100h100v-200h-200v200h-300v-200h100v-100h200v-100h100v-100h100v-300h-100v-100h-500v100h-100zM200 -200h100v100h200v-100h-100v-100h-200v100z" />
<glyph unicode="&#x219;" d="M0 100v100h200v-100h300v100h-100v100h-200v100h-100v100h-100v100h100v100h500v-100h100v-100h-200v100h-300v-100h100v-100h200v-100h100v-100h100v-100h-100v-100h-500v100h-100zM200 -200h100v100h200v-100h-100v-100h-200v100z" />
<glyph unicode="&#x21a;" d="M100 700v300h600v-300h-100v100h-100v-700h100v-100h-400v100h100v700h-100v-100h-100zM200 -200h100v100h200v-100h-100v-100h-200v100z" />
<glyph unicode="&#x21b;" d="M0 600v100h200v200h100v100h100v-300h200v-100h-200v-500h100v100h200v-100h-100v-100h-300v100h-100v500h-200zM200 -200h100v100h200v-100h-100v-100h-200v100z" />
<glyph unicode="&#x251;" d="M0 100v500h100v100h300v-100h100v100h200v-100h-100v-100h-100v-300h100v-100h100v-100h-200v100h-100v-100h-300v100h-100zM200 100h100v500h-100v-500z" />
<glyph unicode="&#x278;" d="M200 200v100h-100v300h100v100h100v100h-200v100h600v-100h-200v-100h100v-100h100v-300h-100v-100h-100v-100h200v-100h-600v100h200v100h-100zM300 300h200v300h-200v-300z" />
<glyph unicode="&#x2c6;" d="M100 800v100h100v100h100v100h100v-100h100v-100h100v-100h-200v100h-100v-100h-200z" />
<glyph unicode="&#x2c7;" d="M100 1100h200v-100h100v100h200v-100h-100v-100h-300v100h-100v100z" />
<glyph unicode="&#x2c9;" d="M100 1100h500v-100h-500v100z" />
<glyph unicode="&#x2d8;" d="M500 1100h200v-100h-100v-100h-500v100h-100v100h200v-100h300v100z" />
<glyph unicode="&#x2d9;" d="M500 1100v-200h-200v200h200z" />
<glyph unicode="&#x2da;" d="M100 1000h100v100h300v-100h100v-200h-100v-100h-300v100h-100v200zM300 800h100v200h-100v-200z" />
<glyph unicode="&#x2db;" d="M400 0v-100h-100v-100h300v-100h-400v100h-100v100h100v100h200z" />
<glyph unicode="&#x2dc;" d="M100 1100h300v-100h100v100h200v-100h-100v-100h-300v100h-100v-100h-200v100h100v100z" />
<glyph unicode="&#x2dd;" d="M0 800v100h100v100h100v100h200v-100h-100v-100h-100v-100h-200zM300 900h100v100h100v100h200v-100h-100v-100h-100v-100h-200v100z" />
<glyph unicode="&#x37e;" d="M400 100v-100h-200v100h100v200h200v-200h-100zM500 600h-200v200h200v-200z" />
<glyph unicode="&#x384;" d="M500 1100v-100h-100v-100h-100v200h100v100h200v-100h-100z" />
<glyph unicode="&#x385;" d="M0 800v100h200v-100h-200zM300 1100v100h200v-100h-100v-100h-200v100h100zM400 800v100h200v-100h-200z" />
<glyph unicode="&#x386;" d="M0 0v700h100v100h100v100h100v100h100v-100h100v-100h100v-100h100v-700h-200v400h-300v-400h-200zM0 1000v100h100v100h200v-100h-100v-100h-200zM200 500h300v200h-100v100h-100v-100h-100v-200z" />
<glyph unicode="&#x387;" d="M500 500h-200v200h200v-200z" />
<glyph unicode="&#x388;" d="M0 0v100h100v700h-100v100h700v-300h-100v100h-100v100h-200v-300h100v100h100v-300h-100v100h-100v-300h200v100h100v100h100v-300h-700zM0 1000v100h100v100h200v-100h-100v-100h-200z" />
<glyph unicode="&#x389;" d="M0 0v900h200v-400h300v400h200v-900h-200v400h-300v-400h-200zM100 1100v100h200v-100h-100v-100h-200v100h100z" />
<glyph unicode="&#x38a;" d="M100 1100v100h200v-100h-100v-100h-200v100h100zM200 0v100h100v700h-100v100h400v-100h-100v-700h100v-100h-400z" />
<glyph unicode="&#x38c;" d="M0 100v700h100v100h500v-100h100v-700h-100v-100h-500v100h-100zM100 1100v100h200v-100h-100v-100h-200v100h100zM200 100h300v700h-300v-700z" />
<glyph unicode="&#x38e;" d="M0 1000v100h100v100h200v-100h-100v-100h-200zM200 0v100h100v300h-100v100h-100v400h200v-400h200v400h200v-400h-100v-100h-100v-300h100v-100h-400z" />
<glyph unicode="&#x38f;" d="M0 0v100h100v200h-100v400h100v100h100v100h300v-100h100v-100h100v-400h-100v-200h100v-100h-300v300h100v400h-100v100h-100v-100h-100v-400h100v-300h-300zM0 1000v100h100v100h200v-100h-100v-100h-200z" />
<glyph unicode="&#x390;" d="M0 800v100h200v-100h-200zM200 100v600h200v-600h100v-100h-200v100h-100zM200 1000v100h100v100h200v-100h-100v-100h-200zM400 800v100h200v-100h-200zM600 200v-100h-100v100h100z" />
<glyph unicode="&#x391;" d="M0 0v700h100v100h100v100h100v100h100v-100h100v-100h100v-100h100v-700h-200v400h-300v-400h-200zM200 500h300v200h-100v100h-100v-100h-100v-200z" />
<glyph unicode="&#x392;" d="M0 0v100h100v800h-100v100h600v-100h100v-300h-100v-100h100v-400h-100v-100h-600zM300 100h200v400h-200v-400zM300 600h200v300h-200v-300z" />
<glyph unicode="&#x393;" d="M0 0v100h100v800h-100v100h700v-300h-100v100h-100v100h-200v-800h100v-100h-400z" />
<glyph unicode="&#x394;" d="M0 0v400h100v200h100v200h100v200h100v-200h100v-200h100v-200h100v-400h-700zM200 100h300v300h-100v200h-100v-200h-100v-300z" />
<glyph unicode="&#x395;" d="M0 0v100h100v800h-100v100h700v-300h-100v100h-100v100h-200v-300h100v100h100v-300h-100v100h-100v-400h200v100h100v100h100v-300h-700z" />
<glyph unicode="&#x396;" d="M0 0v300h100v100h100v100h100v100h100v100h100v200h-300v-100h-100v-100h-100v300h700v-300h-100v-100h-100v-100h-100v-100h-100v-100h-100v-200h300v100h100v100h100v-300h-700z" />
<glyph unicode="&#x397;" d="M0 0v1000h200v-400h300v400h200v-1000h-200v500h-300v-500h-200z" />
<glyph unicode="&#x398;" d="M0 200v600h100v100h100v100h300v-100h100v-100h100v-600h-100v-100h-100v-100h-300v100h-100v100h-100zM200 200h100v-100h100v100h100v300h-300v-300zM200 600h300v200h-100v100h-100v-100h-100v-200z" />
<glyph unicode="&#x399;" d="M500 100h100v-100h-400v100h100v800h-100v100h400v-100h-100v-800z" />
<glyph unicode="&#x39a;" d="M0 0v100h100v800h-100v100h300v-400h100v100h100v300h200v-300h-100v-100h-100v-200h100v-100h100v-300h-200v300h-100v100h-100v-400h-300z" />
<glyph unicode="&#x39b;" d="M0 0v400h100v200h100v200h100v200h100v-200h100v-200h100v-200h100v-400h-200v400h-100v200h-100v-200h-100v-400h-200z" />
<glyph unicode="&#x39c;" d="M0 0v1000h200v-100h100v-100h100v100h100v100h200v-1000h-200v600h-100v-100h-100v100h-100v-600h-200z" />
<glyph unicode="&#x39d;" d="M0 0v1000h200v-100h100v-100h100v-100h100v300h200v-1000h-200v400h-100v100h-100v100h-100v-600h-200z" />
<glyph unicode="&#x39e;" d="M0 200h200v-100h300v100h200v-200h-700v200zM0 1000h700v-200h-200v100h-300v-100h-200v200zM100 500v100h500v-100h-500z" />
<glyph unicode="&#x39f;" d="M0 100v800h100v100h500v-100h100v-800h-100v-100h-500v100h-100zM200 100h300v800h-300v-800z" />
<glyph unicode="&#x3a0;" d="M0 0v1000h700v-1000h-200v900h-300v-900h-200z" />
<glyph unicode="&#x3a1;" d="M0 0v100h100v800h-100v100h600v-100h100v-300h-100v-100h-300v-400h100v-100h-400zM300 600h200v300h-200v-300z" />
<glyph unicode="&#x3a3;" d="M0 200h100v100h100v100h100v200h-100v100h-100v100h-100v200h700v-300h-100v100h-100v100h-300v-100h100v-100h100v-100h100v-200h-100v-100h-100v-100h-100v-100h300v100h100v100h100v-300h-700v200z" />
<glyph unicode="&#x3a4;" d="M100 700v300h600v-300h-100v100h-100v-700h100v-100h-400v100h100v700h-100v-100h-100z" />
<glyph unicode="&#x3a5;" d="M100 600v400h200v-400h200v400h200v-400h-100v-100h-100v-400h100v-100h-400v100h100v400h-100v100h-100z" />
<glyph unicode="&#x3a6;" d="M0 300v400h100v100h200v100h-100v100h300v-100h-100v-100h200v-100h100v-400h-100v-100h-200v-100h100v-100h-300v100h100v100h-200v100h-100zM200 300h100v400h-100v-400zM400 300h100v400h-100v-400z" />
<glyph unicode="&#x3a7;" d="M0 200h100v200h100v200h-100v200h-100v200h200v-200h100v-100h100v100h100v200h200v-200h-100v-200h-100v-200h100v-200h100v-200h-200v200h-100v100h-100v-100h-100v-200h-200v200z" />
<glyph unicode="&#x3a8;" d="M0 400v600h200v-600h100v600h100v-600h100v600h200v-600h-100v-100h-200v-200h100v-100h-300v100h100v200h-200v100h-100z" />
<glyph unicode="&#x3a9;" d="M0 0v100h100v300h-100v400h100v100h100v100h300v-100h100v-100h100v-400h-100v-300h100v-100h-300v400h100v400h-100v100h-100v-100h-100v-400h100v-400h-300z" />
<glyph unicode="&#x3aa;" d="M100 1100h200v-100h-200v100zM200 0v100h100v700h-100v100h400v-100h-100v-700h100v-100h-400zM500 1100h200v-100h-200v100z" />
<glyph unicode="&#x3ab;" d="M200 0v100h100v300h-100v100h-100v400h200v-400h200v400h200v-400h-100v-100h-100v-300h100v-100h-400zM100 1100h200v-100h-200v100zM500 1100h200v-100h-200v100z" />
<glyph unicode="&#x3ac;" d="M0 100v500h100v100h300v-100h-200v-500h200v-100h-300v100h-100zM400 100v500h100v100h100v-600h100v-100h-200v100h-100zM400 900v100h200v-100h-100v-100h-200v100h100z" />
<glyph unicode="&#x3ad;" d="M200 100h-100v200h100v100h-100v200h100v100h500v-100h-400v-200h200v-100h-200v-200h400v-100h-500v100zM400 800v100h100v100h200v-100h-100v-100h-200z" />
<glyph unicode="&#x3ae;" d="M0 600v100h200v-100h100v-600h-200v600h-100zM300 600v100h300v-100h100v-900h-200v900h-200zM300 800v100h100v100h200v-100h-100v-100h-200z" />
<glyph unicode="&#x3af;" d="M200 100v600h200v-600h100v-100h-200v100h-100zM300 800v100h100v100h200v-100h-100v-100h-200zM500 100v100h100v-100h-100z" />
<glyph unicode="&#x3b0;" d="M0 100v600h200v-600h200v600h300v-100h-100v-500h-100v-100h-400v100h-100zM0 800v100h200v-100h-200zM200 1000v100h100v100h200v-100h-100v-100h-200zM400 800v100h200v-100h-200z" />
<glyph unicode="&#x3b1;" d="M0 100v500h100v100h300v-100h-200v-500h200v-100h-300v100h-100zM400 100v500h100v100h100v-600h100v-100h-200v100h-100z" />
<glyph unicode="&#x3b2;" d="M0 -300v1200h100v100h400v-100h100v-200h-100v-100h100v-100h100v-400h-100v-100h-400v-200h-100v-100h-100zM200 100h300v400h-300v-400zM200 600h100v100h100v200h-200v-300z" />
<glyph unicode="&#x3b3;" d="M0 600v100h200v-100h100v-200h100v200h100v100h200v-100h-100v-200h-100v-300h100v-300h-100v-100h-300v100h-100v300h100v300h-100v200h-100zM400 100h-100v-300h100v300z" />
<glyph unicode="&#x3b4;" d="M200 100h-100v400h100v100h200v100h-100v100h-100v100h100v100h400v-100h-300v-100h100v-100h100v-100h100v-500h-100v-100h-400v100zM300 100h200v400h-200v-400z" />
<glyph unicode="&#x3b5;" d="M100 100v200h100v100h-100v200h100v100h500v-100h-400v-200h200v-100h-200v-200h400v-100h-500v100h-100z" />
<glyph unicode="&#x3b6;" d="M0 200v400h100v100h100v100h-100v100h-100v100h200v-100h400v-100h-200v-100h-100v-100h-100v-400h100v-100h300v-100h100v-100h-100v-100h-300v100h200v100h-300v100h-100v100h-100z" />
<glyph unicode="&#x3b7;" d="M0 600v100h200v-100h100v-600h-200v600h-100zM300 600v100h300v-100h100v-900h-200v900h-200z" />
<glyph unicode="&#x3b8;" d="M0 300v100h200v-100h100v-200h200v300h-200v100h-100v100h-100v300h100v100h400v-100h100v-800h-100v-100h-400v100h-100v200h-100zM400 500h100v400h-200v-300h100v-100z" />
<glyph unicode="&#x3b9;" d="M400 100h100v-100h-200v100h-100v600h200v-600zM500 100v100h100v-100h-100z" />
<glyph unicode="&#x3ba;" d="M0 0v700h200v-300h100v100h100v100h100v100h200v-100h-100v-100h-100v-200h100v-100h100v-200h-200v200h-100v100h-100v-100h-100v-200h-200z" />
<glyph unicode="&#x3bb;" d="M200 300v100h100v100h100v100h100v300h-200v-100h-200v100h100v100h400v-100h100v-900h-200v400h-100v-100h-100v-300h-200v300h100z" />
<glyph unicode="&#x3bc;" d="M0 -300v1000h200v-500h100v-100h-100v-400h-200zM300 100h100v600h200v-600h-100v-100h-200v100zM600 100h100v-100h-100v100z" />
<glyph unicode="&#x3bd;" d="M0 600v100h300v-500h100v100h100v400h200v-400h-100v-100h-100v-100h-100v-100h-200v100h-100v500h-100z" />
<glyph unicode="&#x3be;" d="M0 100v200h100v200h-100v200h100v200h-100v100h200v-100h400v-100h-300v-100h-100v-200h400v-100h-300v-100h-100v-200h400v-100h100v-100h-100v-100h-300v100h200v100h-400v100h-100z" />
<glyph unicode="&#x3bf;" d="M0 100v500h100v100h500v-100h100v-500h-100v-100h-500v100h-100zM200 100h300v500h-300v-500z" />
<glyph unicode="&#x3c0;" d="M400 0v600h-100v-600h-200v600h-100v100h700v-100h-100v-600h-200z" />
<glyph unicode="&#x3c1;" d="M0 -300v900h100v100h500v-100h100v-500h-100v-100h-300v100h200v500h-300v-400h100v-100h-100v-400h-200z" />
<glyph unicode="&#x3c2;" d="M0 300v300h100v100h500v-100h100v-100h-200v100h-300v-300h100v-100h300v-100h100v-200h-100v-100h-500v100h400v200h-300v100h-100v100h-100z" />
<glyph unicode="&#x3c3;" d="M0 100v500h100v100h600v-100h-200v-100h100v-400h-100v-100h-400v100h-100zM200 100h200v500h-200v-500z" />
<glyph unicode="&#x3c4;" d="M100 600v100h600v-100h-200v-500h100v-100h-200v100h-100v500h-200zM600 100v100h100v-100h-100z" />
<glyph unicode="&#x3c5;" d="M0 100v600h200v-600h200v600h300v-100h-100v-500h-100v-100h-400v100h-100z" />
<glyph unicode="&#x3c6;" d="M0 100v400h100v100h100v-500h100v600h300v-100h100v-500h-100v-100h-200v-300h-100v300h-200v100h-100zM400 100h100v500h-100v-500z" />
<glyph unicode="&#x3c7;" d="M0 0v100h100v-100h-100zM0 600v100h200v-100h100v-100h100v100h200v-100h-100v-300h100v-100h100v-100h-200v100h-100v100h-100v-100h-200v100h100v300h-100v100h-100zM600 600v100h100v-100h-100z" />
<glyph unicode="&#x3c8;" d="M0 100v600h200v-600h100v500h100v-500h100v600h200v-600h-100v-100h-200v-300h-100v300h-200v100h-100z" />
<glyph unicode="&#x3c9;" d="M0 100v500h100v100h100v-600h100v-100h-200v100h-100zM300 100v300h100v-300h-100zM400 100h100v600h100v-100h100v-500h-100v-100h-200v100z" />
<glyph unicode="&#x3ca;" d="M0 900v100h200v-100h-200zM200 100v600h200v-600h100v-100h-200v100h-100zM400 900v100h200v-100h-200zM500 100v100h100v-100h-100z" />
<glyph unicode="&#x3cb;" d="M0 100v600h200v-600h200v600h300v-100h-100v-500h-100v-100h-400v100h-100zM0 900v100h200v-100h-200zM400 900v100h200v-100h-200z" />
<glyph unicode="&#x3cc;" d="M0 100v500h100v100h500v-100h100v-500h-100v-100h-500v100h-100zM200 100h300v500h-300v-500zM300 800v100h100v100h200v-100h-100v-100h-200z" />
<glyph unicode="&#x3cd;" d="M0 100v600h200v-600h200v600h300v-100h-100v-500h-100v-100h-400v100h-100zM300 800v100h100v100h200v-100h-100v-100h-200z" />
<glyph unicode="&#x3ce;" d="M0 100v500h100v100h100v-600h100v-100h-200v100h-100zM400 100h100v600h100v-100h100v-500h-100v-100h-200v100zM400 400v-300h-100v300h100zM400 900v100h200v-100h-100v-100h-200v100h100z" />
<glyph unicode="&#x3d0;" d="M0 0v900h100v100h400v-100h100v-300h-100v-100h100v-100h100v-300h-100v-100h-200v100h100v300h-100v100h-100v100h100v300h-200v-900h-200z" />
<glyph unicode="&#x3f4;" d="M0 200v500h100v100h100v100h300v-100h100v-100h100v-500h-100v-100h-100v-100h-300v100h-100v100h-100zM200 200h100v-100h100v100h100v200h-300v-200zM200 500h300v200h-100v100h-100v-100h-100v-200z" />
<glyph unicode="&#x400;" d="M0 0v100h100v700h-100v100h700v-300h-100v100h-100v100h-200v-300h100v100h100v-300h-100v100h-100v-300h200v100h100v100h100v-300h-700zM200 1100v100h200v-100h100v-100h-200v100h-100z" />
<glyph unicode="&#x401;" d="M0 0v100h100v700h-100v100h700v-300h-100v100h-100v100h-200v-300h100v100h100v-300h-100v100h-100v-300h200v100h100v100h100v-300h-700zM0 1000v100h200v-100h-200zM500 1100h200v-100h-200v100z" />
<glyph unicode="&#x402;" d="M0 0v100h100v800h-100v100h600v-200h-100v100h-200v-300h100v-100h-100v-500h-300zM400 -100v100h100v600h-100v100h200v-100h100v-600h-100v-100h-200z" />
<glyph unicode="&#x403;" d="M0 0v100h100v700h-100v100h700v-300h-100v100h-100v100h-200v-700h100v-100h-400zM300 1100h100v100h200v-100h-100v-100h-200v100z" />
<glyph unicode="&#x404;" d="M0 200v600h100v100h100v100h400v-100h100v-200h-100v100h-100v100h-200v-100h-100v-200h200v100h100v-300h-100v100h-200v-300h100v-100h200v100h100v100h100v-200h-100v-100h-400v100h-100v100h-100z" />
<glyph unicode="&#x405;" d="M0 100v200h200v-200h300v300h-100v100h-200v100h-100v100h-100v200h100v100h500v-100h100v-200h-200v200h-300v-200h100v-100h200v-100h100v-100h100v-300h-100v-100h-500v100h-100z" />
<glyph unicode="&#x406;" d="M500 100h100v-100h-400v100h100v800h-100v100h400v-100h-100v-800z" />
<glyph unicode="&#x407;" d="M100 1100h200v-100h-200v100zM200 0v100h100v700h-100v100h400v-100h-100v-700h100v-100h-400zM500 1100h200v-100h-200v100z" />
<glyph unicode="&#x408;" d="M0 100v300h200v-300h200v800h-100v100h400v-100h-100v-800h-100v-100h-400v100h-100z" />
<glyph unicode="&#x409;" d="M0 0v1000h600v-100h-100v-300h100v-100h-100v-400h100v-100h-300v900h-100v-900h-200zM600 100v400h100v-400h-100z" />
<glyph unicode="&#x40a;" d="M0 0v1000h200v-400h100v400h200v-400h100v-100h-100v-400h100v-100h-300v500h-100v-500h-200zM600 100v400h100v-400h-100z" />
<glyph unicode="&#x40b;" d="M0 0v100h100v800h-100v100h600v-200h-100v100h-200v-300h300v-100h100v-500h-200v500h-200v-500h-300z" />
<glyph unicode="&#x40c;" d="M0 0v100h100v700h-100v100h300v-400h100v100h100v300h200v-300h-100v-100h-100v-100h100v-100h100v-300h-200v300h-100v100h-100v-400h-300zM400 1100v100h200v-100h-100v-100h-200v100h100z" />
<glyph unicode="&#x40d;" d="M0 0v900h200v-500h100v100h100v100h100v300h200v-900h-200v300h-100v-100h-100v-100h-100v-100h-200zM200 1100v100h200v-100h100v-100h-200v100h-100z" />
<glyph unicode="&#x40e;" d="M0 100v100h200v-100h300v300h-400v100h-100v400h200v-400h300v400h200v-800h-100v-100h-500v100h-100zM200 1000v100h-100v100h200v-100h100v100h200v-100h-100v-100h-300z" />
<glyph unicode="&#x40f;" d="M0 0v100h100v800h-100v100h300v-900h100v900h300v-100h-100v-800h100v-100h-300v-200h-100v200h-300z" />
<glyph unicode="&#x410;" d="M0 0v700h100v100h100v100h100v100h100v-100h100v-100h100v-100h100v-700h-200v400h-300v-400h-200zM200 500h300v200h-100v100h-100v-100h-100v-200z" />
<glyph unicode="&#x411;" d="M0 0v100h100v800h-100v100h700v-300h-100v100h-100v100h-200v-300h300v-100h100v-400h-100v-100h-600zM300 100h200v400h-200v-400z" />
<glyph unicode="&#x412;" d="M0 0v100h100v800h-100v100h600v-100h100v-300h-100v-100h100v-400h-100v-100h-600zM300 100h200v400h-200v-400zM300 600h200v300h-200v-300z" />
<glyph unicode="&#x413;" d="M0 0v100h100v800h-100v100h700v-300h-100v100h-100v100h-200v-800h100v-100h-400z" />
<glyph unicode="&#x414;" d="M0 100h100v700h100v100h100v100h400v-900h100v-300h-100v100h-100v100h-400v-100h-100v-100h-100v300zM400 900v-100h-100v-700h200v800h-100z" />
<glyph unicode="&#x415;" d="M0 0v100h100v800h-100v100h700v-300h-100v100h-100v100h-200v-300h100v100h100v-300h-100v100h-100v-400h200v100h100v100h100v-300h-700z" />
<glyph unicode="&#x416;" d="M0 0v400h100v100h100v100h-100v100h-100v300h200v-300h100v300h100v-300h100v300h200v-300h-100v-100h-100v-100h100v-100h100v-400h-200v400h-100v-400h-100v400h-100v-400h-200z" />
<glyph unicode="&#x417;" d="M0 100v200h100v-100h100v-100h300v400h-300v100h300v300h-300v-100h-100v-100h-100v200h100v100h500v-100h100v-300h-100v-100h100v-400h-100v-100h-500v100h-100z" />
<glyph unicode="&#x418;" d="M0 0v1000h200v-500h100v100h100v100h100v300h200v-1000h-200v400h-100v-100h-100v-100h-100v-200h-200z" />
<glyph unicode="&#x419;" d="M0 0v900h200v-500h100v100h100v100h100v300h200v-900h-200v300h-100v-100h-100v-100h-100v-100h-200zM200 1000v100h-100v100h200v-100h100v100h200v-100h-100v-100h-300z" />
<glyph unicode="&#x41a;" d="M0 0v100h100v800h-100v100h300v-400h100v100h100v300h200v-300h-100v-100h-100v-200h100v-100h100v-300h-200v300h-100v100h-100v-400h-300z" />
<glyph unicode="&#x41b;" d="M0 0v100h100v700h100v100h100v100h400v-1000h-200v900h-100v-100h-100v-700h-100v-100h-200z" />
<glyph unicode="&#x41c;" d="M0 0v1000h200v-100h100v-100h100v100h100v100h200v-1000h-200v600h-100v-100h-100v100h-100v-600h-200z" />
<glyph unicode="&#x41d;" d="M0 0v1000h200v-400h300v400h200v-1000h-200v500h-300v-500h-200z" />
<glyph unicode="&#x41e;" d="M0 100v800h100v100h500v-100h100v-800h-100v-100h-500v100h-100zM200 100h300v800h-300v-800z" />
<glyph unicode="&#x41f;" d="M0 0v1000h700v-1000h-200v900h-300v-900h-200z" />
<glyph unicode="&#x420;" d="M0 0v100h100v800h-100v100h600v-100h100v-300h-100v-100h-300v-400h100v-100h-400zM300 600h200v300h-200v-300z" />
<glyph unicode="&#x421;" d="M0 200v600h100v100h100v100h400v-100h100v-200h-100v100h-100v100h-200v-100h-100v-600h100v-100h200v100h100v100h100v-200h-100v-100h-400v100h-100v100h-100z" />
<glyph unicode="&#x422;" d="M100 700v300h600v-300h-100v100h-100v-700h100v-100h-400v100h100v700h-100v-100h-100z" />
<glyph unicode="&#x423;" d="M0 100v100h200v-100h300v300h-400v100h-100v500h200v-500h300v500h200v-900h-100v-100h-500v100h-100z" />
<glyph unicode="&#x424;" d="M0 300v400h100v100h200v100h-100v100h300v-100h-100v-100h200v-100h100v-400h-100v-100h-200v-100h100v-100h-300v100h100v100h-200v100h-100zM200 300h100v400h-100v-400zM400 300h100v400h-100v-400z" />
<glyph unicode="&#x425;" d="M0 200h100v200h100v200h-100v200h-100v200h200v-200h100v-100h100v100h100v200h200v-200h-100v-200h-100v-200h100v-200h100v-200h-200v200h-100v100h-100v-100h-100v-200h-200v200z" />
<glyph unicode="&#x426;" d="M0 0v1000h200v-900h200v900h200v-900h100v-300h-100v100h-100v100h-500z" />
<glyph unicode="&#x427;" d="M0 500v500h200v-500h300v500h200v-1000h-200v400h-400v100h-100z" />
<glyph unicode="&#x428;" d="M0 0v1000h200v-900h100v900h100v-900h100v900h200v-1000h-700z" />
<glyph unicode="&#x429;" d="M0 0v1000h200v-900h100v900h100v-900h100v900h200v-900h100v-300h-100v100h-100v100h-600z" />
<glyph unicode="&#x42a;" d="M0 700v300h400v-400h200v-100h100v-400h-100v-100h-500v100h100v800h-100v-200h-100zM400 100h100v400h-100v-400z" />
<glyph unicode="&#x42b;" d="M0 0v1000h200v-400h100v-100h-100v-400h100v-100h-300zM300 100v400h100v-400h-100zM500 0v1000h200v-1000h-200z" />
<glyph unicode="&#x42c;" d="M0 0v100h100v800h-100v100h400v-100h-100v-300h300v-100h100v-400h-100v-100h-600zM300 100h200v400h-200v-400z" />
<glyph unicode="&#x42d;" d="M0 100v200h100v-100h100v-100h200v100h100v300h-200v-100h-100v300h100v-100h200v200h-100v100h-200v-100h-100v-100h-100v200h100v100h400v-100h100v-100h100v-600h-100v-100h-100v-100h-400v100h-100z" />
<glyph unicode="&#x42e;" d="M0 0v1000h200v-400h100v300h100v-800h-100v400h-100v-500h-200zM400 100h100v800h-100v100h200v-100h100v-800h-100v-100h-200v100z" />
<glyph unicode="&#x42f;" d="M0 0v400h100v200h-100v300h100v100h600v-100h-100v-800h100v-100h-300v500h-100v-100h-100v-400h-200zM200 600h200v300h-200v-300z" />
<glyph unicode="&#x430;" d="M0 100v300h100v100h300v100h-300v100h400v-100h100v-500h100v-100h-200v100h-100v300h-200v-300h200v-100h-300v100h-100z" />
<glyph unicode="&#x431;" d="M0 100v600h100v100h300v100h200v-100h-100v-100h-300v-200h400v-100h100v-300h-100v-100h-500v100h-100zM200 100h300v300h-300v-300z" />
<glyph unicode="&#x432;" d="M0 0v100h100v500h-100v100h600v-100h100v-200h-100v-100h100v-200h-100v-100h-600zM300 100h200v200h-200v-200zM300 400h200v200h-200v-200z" />
<glyph unicode="&#x433;" d="M0 0v100h100v500h-100v100h700v-300h-100v100h-100v100h-200v-500h100v-100h-400z" />
<glyph unicode="&#x434;" d="M0 -200v600h100v100h100v200h400v-600h100v-300h-100v100h-100v100h-300v-100h-100v-100h-100zM200 100h200v400h-100v-100h-100v-300z" />
<glyph unicode="&#x435;" d="M0 100v500h100v100h500v-100h100v-200h-500v-300h300v100h200v-100h-100v-100h-500v100h-100zM200 500h300v100h-300v-100z" />
<glyph unicode="&#x436;" d="M0 0v300h100v100h-100v300h200v-300h100v300h100v-300h100v300h200v-300h-100v-100h100v-300h-200v300h-100v-300h-100v300h-100v-300h-200z" />
<glyph unicode="&#x437;" d="M0 100v100h200v-100h300v200h-200v100h200v200h-300v-100h-200v100h100v100h500v-100h100v-200h-100v-100h100v-200h-100v-100h-500v100h-100z" />
<glyph unicode="&#x438;" d="M0 0v700h200v-400h100v100h100v100h100v200h200v-700h-200v300h-100v-100h-100v-100h-100v-100h-200z" />
<glyph unicode="&#x439;" d="M0 0v700h200v-400h100v100h100v100h100v200h200v-700h-200v300h-100v-100h-100v-100h-100v-100h-200zM200 900h-100v100h200v-100h100v100h200v-100h-100v-100h-300v100z" />
<glyph unicode="&#x43a;" d="M0 0v100h100v500h-100v100h300v-300h100v100h100v200h200v-200h-100v-100h-100v-100h100v-100h100v-200h-200v200h-100v100h-100v-300h-300z" />
<glyph unicode="&#x43b;" d="M0 0v100h100v400h100v100h100v100h400v-700h-200v600h-100v-100h-100v-400h-100v-100h-200z" />
<glyph unicode="&#x43c;" d="M0 0v700h200v-100h100v-100h100v100h100v100h200v-700h-200v400h-100v-200h-100v200h-100v-400h-200z" />
<glyph unicode="&#x43d;" d="M0 0v700h200v-300h300v300h200v-700h-200v300h-300v-300h-200z" />
<glyph unicode="&#x43e;" d="M0 100v500h100v100h500v-100h100v-500h-100v-100h-500v100h-100zM200 100h300v500h-300v-500z" />
<glyph unicode="&#x43f;" d="M0 0v700h700v-700h-200v600h-300v-600h-200z" />
<glyph unicode="&#x440;" d="M0 -200h100v800h-100v100h200v-100h100v-500h200v500h-200v100h300v-100h100v-500h-100v-100h-300v-200h100v-100h-400v100z" />
<glyph unicode="&#x441;" d="M0 100v500h100v100h500v-100h100v-100h-200v100h-300v-500h300v100h200v-100h-100v-100h-500v100h-100z" />
<glyph unicode="&#x442;" d="M100 500v200h600v-200h-100v100h-100v-500h100v-100h-400v100h100v500h-100v-100h-100z" />
<glyph unicode="&#x443;" d="M0 100v600h200v-600h300v600h200v-800h-100v-100h-100v-100h-500v100h400v100h100v100h-400v100h-100z" />
<glyph unicode="&#x444;" d="M0 100v500h100v100h200v300h100v-300h200v-100h100v-500h-100v-100h-200v-300h-100v300h-200v100h-100zM200 100h100v500h-100v-500zM400 100h100v500h-100v-500z" />
<glyph unicode="&#x445;" d="M0 0v100h100v100h100v300h-100v100h-100v100h200v-100h100v-100h100v100h100v100h200v-100h-100v-100h-100v-300h100v-100h100v-100h-200v100h-100v100h-100v-100h-100v-100h-200z" />
<glyph unicode="&#x446;" d="M0 0v700h200v-600h200v600h200v-600h100v-300h-100v100h-100v100h-500z" />
<glyph unicode="&#x447;" d="M0 400v300h200v-300h300v300h200v-700h-200v300h-400v100h-100z" />
<glyph unicode="&#x448;" d="M0 0v700h200v-600h100v600h100v-600h100v600h200v-700h-700z" />
<glyph unicode="&#x449;" d="M0 0v700h200v-600h100v600h100v-600h100v600h200v-600h100v-300h-100v100h-100v100h-600z" />
<glyph unicode="&#x44a;" d="M0 500v200h400v-300h200v-100h100v-200h-100v-100h-500v100h100v500h-100v-100h-100zM400 100h100v200h-100v-200z" />
<glyph unicode="&#x44b;" d="M0 0v700h200v-300h100v-100h-100v-200h100v-100h-300zM300 100v200h100v-200h-100zM500 0v700h200v-700h-200z" />
<glyph unicode="&#x44c;" d="M100 0v100h100v500h-100v100h400v-100h-100v-200h200v-100h100v-200h-100v-100h-500zM400 100h100v200h-100v-200z" />
<glyph unicode="&#x44d;" d="M0 100v100h200v-100h300v300h-200v100h200v100h-300v-100h-200v100h100v100h500v-100h100v-500h-100v-100h-500v100h-100z" />
<glyph unicode="&#x44e;" d="M0 0v700h200v-300h100v200h100v-500h-100v200h-100v-300h-200zM400 100h100v500h-100v100h200v-100h100v-500h-100v-100h-200v100z" />
<glyph unicode="&#x44f;" d="M0 0v100h100v200h100v100h-100v200h100v100h500v-100h-100v-500h100v-100h-300v300h-100v-300h-300zM300 400h100v200h-100v-200z" />
<glyph unicode="&#x450;" d="M0 100v500h100v100h500v-100h100v-200h-500v-300h300v100h200v-100h-100v-100h-500v100h-100zM200 500h300v100h-300v-100zM200 1000h-100v100h200v-100h100v-100h100v-100h-200v100h-100v100z" />
<glyph unicode="&#x451;" d="M0 100v500h100v100h500v-100h100v-200h-500v-300h300v100h200v-100h-100v-100h-500v100h-100zM0 900v100h200v-100h-200zM200 500h300v100h-300v-100zM500 900v100h200v-100h-200z" />
<glyph unicode="&#x452;" d="M0 0v100h100v700h-100v100h100v100h200v-100h200v-100h-200v-200h100v-100h-100v-500h-300zM400 -200h100v800h-100v100h200v-100h100v-800h-100v-100h-200v100z" />
<glyph unicode="&#x453;" d="M0 0v100h100v500h-100v100h700v-300h-100v100h-100v100h-200v-500h100v-100h-400zM200 800v100h100v100h100v100h200v-100h-100v-100h-100v-100h-200z" />
<glyph unicode="&#x454;" d="M0 100v500h100v100h500v-100h100v-100h-200v100h-300v-200h300v-100h-300v-200h300v100h200v-100h-100v-100h-500v100h-100z" />
<glyph unicode="&#x455;" d="M0 100v100h200v-100h300v100h-100v100h-200v100h-100v100h-100v100h100v100h500v-100h100v-100h-200v100h-300v-100h100v-100h200v-100h100v-100h100v-100h-100v-100h-500v100h-100z" />
<glyph unicode="&#x456;" d="M200 0v100h100v500h-100v100h300v-600h100v-100h-400zM300 1000h200v-200h-200v200z" />
<glyph unicode="&#x457;" d="M100 900v100h200v-100h-200zM200 0v100h100v500h-100v100h300v-600h100v-100h-400zM500 900v100h200v-100h-200z" />
<glyph unicode="&#x458;" d="M0 0h200v-200h200v800h-100v100h300v-900h-100v-100h-400v100h-100v200zM400 1000h200v-200h-200v200z" />
<glyph unicode="&#x459;" d="M0 0v700h600v-100h-100v-200h100v-100h-100v-200h100v-100h-300v600h-100v-600h-200zM600 100v200h100v-200h-100z" />
<glyph unicode="&#x45a;" d="M0 0v700h200v-300h100v300h200v-300h100v-100h-100v-200h100v-100h-300v300h-100v-300h-200zM600 100v200h100v-200h-100z" />
<glyph unicode="&#x45b;" d="M0 0v100h100v700h-100v100h100v100h200v-100h200v-100h-200v-100h300v-100h100v-600h-200v600h-200v-600h-300z" />
<glyph unicode="&#x45c;" d="M0 0v100h100v500h-100v100h300v-300h100v100h100v200h200v-200h-100v-100h-100v-100h100v-100h100v-200h-200v200h-100v100h-100v-300h-300zM200 800v100h100v100h100v100h200v-100h-100v-100h-100v-100h-200z" />
<glyph unicode="&#x45d;" d="M0 0v700h200v-400h100v100h100v100h100v200h200v-700h-200v300h-100v-100h-100v-100h-100v-100h-200zM200 1000h-100v100h200v-100h100v-100h100v-100h-200v100h-100v100z" />
<glyph unicode="&#x45e;" d="M0 100v600h200v-600h300v600h200v-800h-100v-100h-100v-100h-500v100h400v100h100v100h-400v100h-100zM200 900h-100v100h200v-100h100v100h200v-100h-100v-100h-300v100z" />
<glyph unicode="&#x45f;" d="M0 0v100h100v500h-100v100h300v-600h100v600h300v-100h-100v-500h100v-100h-300v-200h-100v200h-300z" />
<glyph unicode="&#x490;" d="M0 0v100h100v800h-100v100h500v100h100v100h100v-300h-400v-800h100v-100h-400z" />
<glyph unicode="&#x491;" d="M0 0v100h100v500h-100v100h500v100h100v100h100v-300h-400v-500h100v-100h-400z" />
<glyph unicode="&#x5be;" d="M100 700v100h600v-100h-600z" />
<glyph unicode="&#x5d0;" d="M0 0v400h100v200h-100v200h200v-200h100v-100h100v-100h100v400h200v-400h-100v-200h100v-200h-200v200h-100v100h-100v100h-100v-400h-200z" />
<glyph unicode="&#x5d1;" d="M0 0v100h400v600h-400v100h500v-100h100v-600h100v-100h-700z" />
<glyph unicode="&#x5d2;" d="M0 0v100h200v100h100v100h100v400h-200v100h300v-100h100v-500h100v-200h-200v200h-100v-100h-100v-100h-300z" />
<glyph unicode="&#x5d3;" d="M400 0v700h-400v100h700v-100h-100v-700h-200z" />
<glyph unicode="&#x5d4;" d="M0 0v400h200v-400h-200zM0 700v100h600v-100h100v-700h-200v700h-500z" />
<glyph unicode="&#x5d5;" d="M400 700h100v-700h-200v700h-200v100h300v-100z" />
<glyph unicode="&#x5d6;" d="M0 700v100h600v-100h-200v-300h100v-200h-100v-100h-100v-100h-200v100h100v100h100v200h-100v300h-200z" />
<glyph unicode="&#x5d7;" d="M0 0v600h100v100h-100v100h600v-100h100v-700h-200v700h-200v-100h-100v-600h-200z" />
<glyph unicode="&#x5d8;" d="M0 100v700h200v-700h300v600h-100v100h200v-100h100v-600h-100v-100h-500v100h-100zM300 500v200h100v-200h-100z" />
<glyph unicode="&#x5d9;" d="M400 400v-100h-200v100h100v300h-200v100h300v-100h100v-300h-100z" />
<glyph unicode="&#x5da;" d="M0 700v100h600v-100h100v-300h-100v-600h100v-100h-300v700h100v300h-500z" />
<glyph unicode="&#x5db;" d="M0 0v100h500v600h-500v100h600v-100h100v-600h-100v-100h-600z" />
<glyph unicode="&#x5dc;" d="M0 700v300h200v-200h400v-100h100v-400h-100v-100h-100v-200h-200v200h100v100h100v400h-500z" />
<glyph unicode="&#x5dd;" d="M0 0v600h100v100h-100v100h600v-100h100v-700h-700zM200 100h300v600h-200v-100h-100v-500z" />
<glyph unicode="&#x5de;" d="M0 0v500h100v200h-100v100h200v-100h100v100h300v-100h100v-700h-400v100h200v600h-100v-100h-100v-100h-100v-500h-200z" />
<glyph unicode="&#x5df;" d="M200 700v100h300v-100h100v-200h-100v-700h100v-100h-300v800h100v200h-200z" />
<glyph unicode="&#x5e0;" d="M400 100v600h-200v100h300v-100h100v-700h-500v100h300z" />
<glyph unicode="&#x5e1;" d="M0 100v500h100v100h-100v100h600v-100h100v-500h-100v-100h-100v-100h-400v100h-100zM200 100h200v100h100v500h-200v-100h-100v-500z" />
<glyph unicode="&#x5e2;" d="M0 0v100h200v100h-100v500h-100v100h300v-700h100v100h100v500h-100v100h300v-600h-100v-100h-100v-100h-500z" />
<glyph unicode="&#x5e3;" d="M0 300v300h100v100h-100v100h500v-100h100v-900h100v-100h-300v1000h-200v-300h100v-100h-300z" />
<glyph unicode="&#x5e4;" d="M0 0v100h500v600h-300v-300h100v-100h-300v300h100v100h-100v100h600v-100h100v-700h-700z" />
<glyph unicode="&#x5e5;" d="M0 700v100h300v-400h100v100h100v200h-100v100h300v-300h-100v-100h-100v-100h-200v-500h100v-100h-300v1000h-100z" />
<glyph unicode="&#x5e6;" d="M0 0v100h500v100h-100v100h-100v100h-100v100h-100v200h-100v100h300v-300h100v-100h100v-100h100v-100h100v-200h-700zM400 700v100h300v-300h-100v-100h-100v300h-100z" />
<glyph unicode="&#x5e7;" d="M0 700v100h600v-100h100v-300h-100v-200h100v-100h-300v200h100v400h-500zM100 500h200v-800h-200v800z" />
<glyph unicode="&#x5e8;" d="M0 700v100h600v-100h100v-700h-200v700h-500z" />
<glyph unicode="&#x5e9;" d="M0 100v700h200v-500h100v500h100v-600h-200v-100h300v700h200v-700h-100v-100h-500v100h-100z" />
<glyph unicode="&#x5ea;" d="M0 200h100v500h-100v100h600v-100h100v-700h-200v700h-200v-700h-300v200z" />
<glyph unicode="&#x5f0;" d="M0 700v100h200v-100h100v-700h-200v700h-100zM400 700v100h200v-100h100v-700h-200v700h-100z" />
<glyph unicode="&#x5f1;" d="M0 700v100h200v-100h100v-300h-200v300h-100zM400 700v100h200v-100h100v-700h-200v700h-100z" />
<glyph unicode="&#x5f2;" d="M0 700v100h200v-100h100v-300h-200v300h-100zM400 700v100h200v-100h100v-300h-200v300h-100z" />
<glyph unicode="&#x5f3;" d="M400 700v-100h-200v100h100v200h200v-200h-100z" />
<glyph unicode="&#x5f4;" d="M0 600v100h100v200h200v-200h-100v-100h-200zM400 600v100h100v200h200v-200h-100v-100h-200z" />
<glyph unicode="&#x1d1b;" d="M0 600v100h100v100h300v-100h100v100h200v-100h-100v-100h-100v-600h-200v700h-100v-100h-200z" />
<glyph unicode="&#x1d26;" d="M0 0v1000h700v-300h-200v200h-300v-900h-200z" />
<glyph unicode="&#x1d28;" d="M400 0v700h-100v-700h-200v700h-100v100h700v-100h-100v-700h-200z" />
<glyph unicode="&#x1e80;" d="M0 100v800h200v-600h100v300h100v-300h100v600h200v-800h-100v-100h-200v200h-100v-200h-200v100h-100zM200 1100v100h200v-100h100v-100h-200v100h-100z" />
<glyph unicode="&#x1e81;" d="M0 100v600h200v-500h100v300h100v-300h100v500h200v-600h-100v-100h-200v100h-100v-100h-200v100h-100zM200 1000h-100v100h200v-100h100v-100h100v-100h-200v100h-100v100z" />
<glyph unicode="&#x1e82;" d="M0 100v800h200v-600h100v300h100v-300h100v600h200v-800h-100v-100h-200v200h-100v-200h-200v100h-100zM200 1000v100h100v100h200v-100h-100v-100h-200z" />
<glyph unicode="&#x1e83;" d="M0 100v600h200v-500h100v300h100v-300h100v500h200v-600h-100v-100h-200v100h-100v-100h-200v100h-100zM200 900v100h100v100h200v-100h-100v-100h-100v-100h-200v100h100z" />
<glyph unicode="&#x1e84;" d="M0 100v800h200v-600h100v300h100v-300h100v600h200v-800h-100v-100h-200v200h-100v-200h-200v100h-100zM0 1000v100h200v-100h-200zM500 1100h200v-100h-200v100z" />
<glyph unicode="&#x1e85;" d="M0 100v600h200v-500h100v300h100v-300h100v500h200v-600h-100v-100h-200v100h-100v-100h-200v100h-100zM0 900v100h200v-100h-200zM500 900v100h200v-100h-200z" />
<glyph unicode="&#x1e9f;" d="M200 100h-100v400h100v100h200v100h-100v100h-100v100h100v100h400v-100h-300v-100h100v-100h100v-100h100v-500h-100v-100h-400v100zM300 100h200v400h-200v-400z" />
<glyph unicode="&#x1ef2;" d="M200 0v100h100v300h-100v100h-100v400h200v-400h200v400h200v-400h-100v-100h-100v-300h100v-100h-400zM200 1100v100h200v-100h100v-100h-200v100h-100z" />
<glyph unicode="&#x1ef3;" d="M0 100v600h200v-600h300v600h200v-800h-100v-100h-100v-100h-500v100h400v100h100v100h-400v100h-100zM200 1000h-100v100h200v-100h100v-100h100v-100h-200v100h-100v100z" />
<glyph unicode="&#x2010;" d="M100 400v100h600v-100h-600z" />
<glyph unicode="&#x2012;" d="M100 400v100h500v-100h-500z" />
<glyph unicode="&#x2013;" d="M100 400v100h500v-100h-500z" />
<glyph unicode="&#x2014;" d="M0 400v100h800v-100h-800z" />
<glyph unicode="&#x2015;" d="M0 400v100h800v-100h-800z" />
<glyph unicode="&#x2017;" d="M0 -100v100h800v-100h-800zM0 -200h800v-100h-800v100z" />
<glyph unicode="&#x2018;" d="M500 1100v-100h-100v-200h-200v200h100v100h200z" />
<glyph unicode="&#x2019;" d="M500 1100v-200h-100v-100h-200v100h100v200h200z" />
<glyph unicode="&#x201a;" d="M400 -200v-100h-200v100h100v200h200v-200h-100z" />
<glyph unicode="&#x201b;" d="M400 900h100v-100h-200v100h-100v200h200v-200z" />
<glyph unicode="&#x201c;" d="M100 1100h200v-100h-100v-200h-200v200h100v100zM500 1100h200v-100h-100v-200h-200v200h100v100z" />
<glyph unicode="&#x201d;" d="M100 1100h200v-200h-100v-100h-200v100h100v200zM500 1100h200v-200h-100v-100h-200v100h100v200z" />
<glyph unicode="&#x201e;" d="M0 -200h100v200h200v-200h-100v-100h-200v100zM400 -200h100v200h200v-200h-100v-100h-200v100z" />
<glyph unicode="&#x201f;" d="M0 900v200h200v-200h100v-100h-200v100h-100zM400 900v200h200v-200h100v-100h-200v100h-100z" />
<glyph unicode="&#x2020;" d="M500 1100v-400h200v-100h-200v-800h-200v800h-200v100h200v400h200z" />
<glyph unicode="&#x2021;" d="M100 200v100h200v300h-200v100h200v400h200v-400h200v-100h-200v-300h200v-100h-200v-400h-200v400h-200z" />
<glyph unicode="&#x2022;" d="M500 200h-200v100h-100v200h100v100h200v-100h100v-200h-100v-100z" />
<glyph unicode="&#x2026;" d="M0 200h200v-200h-200v200zM800 200v-200h-200v200h200zM500 200v-200h-200v200h200z" />
<glyph unicode="&#x2027;" d="M500 500v-200h-200v200h200z" />
<glyph unicode="&#x2030;" d="M0 100v100h100v100h100v100h100v100h100v100h100v100h200v-100h-100v-100h-100v-100h-100v-100h-100v-100h-100v-100h-200zM0 500v200h200v-200h-200zM600 200h200v-200h-200v200zM300 200h200v-200h-200v200z" />
<glyph unicode="&#x2032;" d="M400 1000v100h200v-100h-100v-100h-100v-100h-200v100h100v100h100z" />
<glyph unicode="&#x2033;" d="M0 800v100h100v100h100v100h200v-100h-100v-100h-100v-100h-200zM300 900h100v100h100v100h200v-100h-100v-100h-100v-100h-200v100z" />
<glyph unicode="&#x2035;" d="M400 1000h100v-100h100v-100h-200v100h-100v100h-100v100h200v-100z" />
<glyph unicode="&#x2039;" d="M200 400v100h100v100h100v100h200v-100h-100v-100h-100v-100h100v-100h100v-100h-200v100h-100v100h-100z" />
<glyph unicode="&#x203a;" d="M200 200v100h100v100h100v100h-100v100h-100v100h200v-100h100v-100h100v-100h-100v-100h-100v-100h-200z" />
<glyph unicode="&#x203c;" d="M100 200h200v-200h-200v200zM100 300v700h200v-700h-200zM500 200h200v-200h-200v200zM500 300v700h200v-700h-200z" />
<glyph unicode="&#x203e;" d="M100 1100h600v-100h-600v100z" />
<glyph unicode="&#x203f;" d="M0 -200v100h200v-100h300v100h200v-100h-100v-100h-500v100h-100z" />
<glyph unicode="&#x2040;" d="M100 1100h500v-100h100v-100h-200v100h-300v-100h-200v100h100v100z" />
<glyph unicode="&#x2044;" d="M0 200h100v100h100v100h100v100h100v100h100v100h100v100h100v-200h-100v-100h-100v-100h-100v-100h-100v-100h-100v-100h-100v-100h-100v200z" />
<glyph unicode="&#x2054;" d="M0 -200h100v100h500v-100h100v-100h-200v100h-300v-100h-200v100z" />
<glyph unicode="&#x2074;" d="M0 700v100h100v100h100v-100h100v100h-100v100h100v100h200v-600h-200v200h-300z" />
<glyph unicode="&#x2075;" d="M0 500v100h300v200h-300v300h500v-100h-300v-100h200v-100h100v-200h-100v-100h-400z" />
<glyph unicode="&#x2076;" d="M100 1100h300v-100h-200v-100h200v-100h100v-200h-100v-100h-300v100h-100v400h100v100zM200 600h100v200h-100v-200z" />
<glyph unicode="&#x2077;" d="M0 900v200h500v-200h-100v-100h-100v-300h-200v300h100v100h100v100h-200v-100h-100z" />
<glyph unicode="&#x2078;" d="M0 600v200h100v100h-100v100h100v100h300v-100h100v-100h-100v-100h100v-200h-100v-100h-300v100h-100zM200 600h100v200h-100v-200zM200 1000v-100h100v100h-100z" />
<glyph unicode="&#x2079;" d="M100 1100h300v-100h100v-400h-100v-100h-300v100h200v100h-200v100h-100v200h100v100zM200 800h100v200h-100v-200z" />
<glyph unicode="&#x207a;" d="M400 600h-200v200h-200v100h200v200h200v-200h200v-100h-200v-200z" />
<glyph unicode="&#x207b;" d="M100 800v100h500v-100h-500z" />
<glyph unicode="&#x207f;" d="M0 1000v100h200v-100h100v-500h-200v500h-100zM300 1100h200v-100h100v-500h-200v500h-100v100z" />
<glyph unicode="&#x2081;" d="M400 -200h100v-100h-400v100h100v300h-100v100h100v100h200v-500z" />
<glyph unicode="&#x2082;" d="M0 100v100h100v100h300v-100h100v-100h-100v-100h-100v-100h-100v-100h200v100h100v-200h-500v200h100v100h100v100h100v100h-100v-100h-200z" />
<glyph unicode="&#x2083;" d="M0 200v100h400v-100h100v-100h-100v-100h100v-200h-100v-100h-400v100h300v200h-200v100h200v100h-300z" />
<glyph unicode="&#x2084;" d="M0 -100v100h100v100h100v-100h100v100h-100v100h100v100h200v-600h-200v200h-300z" />
<glyph unicode="&#x2085;" d="M0 0v300h500v-100h-300v-100h200v-100h100v-200h-100v-100h-400v100h300v200h-300z" />
<glyph unicode="&#x2086;" d="M0 200h100v100h300v-100h-200v-100h200v-100h100v-200h-100v-100h-300v100h-100v400zM200 -200h100v200h-100v-200z" />
<glyph unicode="&#x2087;" d="M0 100v200h500v-200h-100v-100h-100v-300h-200v300h100v100h100v100h-200v-100h-100z" />
<glyph unicode="&#x2088;" d="M0 100v100h100v100h300v-100h100v-100h-100v-100h100v-200h-100v-100h-300v100h-100v200h100v100h-100zM200 200v-100h100v100h-100zM200 -200h100v200h-100v-200z" />
<glyph unicode="&#x2089;" d="M0 200h100v100h300v-100h100v-400h-100v-100h-300v100h200v100h-200v100h-100v200zM200 0h100v200h-100v-200z" />
<glyph unicode="&#x208a;" d="M0 -100v100h200v200h200v-200h200v-100h-200v-200h-200v200h-200z" />
<glyph unicode="&#x208b;" d="M100 -100v100h500v-100h-500z" />
<glyph unicode="&#x20a3;" d="M0 200v100h100v600h-100v100h700v-300h-100v100h-100v100h-200v-300h100v100h100v-300h-100v100h-100v-200h100v-100h-100v-100h100v-100h-400v100h100v100h-100z" />
<glyph unicode="&#x20a4;" d="M0 200h100v200h-100v100h100v100h-100v100h100v300h100v100h300v-100h100v-200h-100v100h-100v100h-100v-300h100v-100h-100v-100h100v-100h-100v-300h200v100h200v-100h-100v-100h-600v200z" />
<glyph unicode="&#x20a7;" d="M0 0v1100h500v-100h100v-200h-100v-100h-300v-700h-200zM200 1000v-200h200v200h-200zM400 100v300h-100v100h100v100h100v100h100v-200h100v-100h-100v-300h100v-100h-200v100h-100z" />
<glyph unicode="&#x20aa;" d="M0 100v700h500v-500h-100v400h-300v-600h-100zM200 100v500h100v-400h300v600h100v-700h-500z" />
<glyph unicode="&#x20ac;" d="M0 500v100h100v100h100v100h100v100h300v-100h100v-100h-200v100h-100v-100h-100v-100h300v-100h-300v-100h200v-100h-200v-100h100v-100h100v100h200v-100h-100v-100h-300v100h-100v100h-100v100h-100v100h100v100h-100z" />
<glyph unicode="&#x2105;" d="M0 100v200h100v100h100v100h100v100h100v100h100v100h100v100h100v-200h-100v-100h-100v-100h-100v-100h-100v-100h-100v-100h-100v-100h-100zM0 700v300h100v100h200v-100h-100v-300h100v-100h-200v100h-100zM400 -100h100v300h-100v-300zM400 700h-100v100h100v-100z M400 1000v-100h-100v100h100zM300 200v100h300v-100h100v-300h-100v-100h-300v100h-100v300h100z" />
<glyph unicode="&#x2113;" d="M200 200v-100h-100v100h100zM200 400h-100v400h100v100h100v100h100v-100h100v-100h100v-400h-100v-100h-100v-100h100v-100h100v-100h-200v100h-100v100h-100v200zM400 400v400h-100v-400h100zM600 100v100h100v-100h-100z" />
<glyph unicode="&#x2116;" d="M0 0v1000h100v-100h100v-100h100v-100h100v300h400v-400h-200v-100h200v-100h-200v-400h-200v400h-100v100h-100v-500h-200zM600 700h100v200h-100v-200z" />
<glyph unicode="&#x2122;" d="M800 600h-100v300h-100v100h100v100h100v-500zM0 1000v100h400v-100h100v-100h-100v-300h-100v400h-100v-400h-100v400h-100zM500 900h100v-100h-100v100z" />
<glyph unicode="&#x2126;" d="M0 0v100h100v400h-100v300h100v100h100v100h300v-100h100v-100h100v-300h-100v-400h100v-100h-300v500h100v300h-100v100h-100v-100h-100v-300h100v-500h-300z" />
<glyph unicode="&#x212e;" d="M0 100v500h100v100h500v-100h100v-200h-500v-300h300v100h200v-100h-100v-100h-500v100h-100zM200 500h300v100h-300v-100z" />
<glyph unicode="&#x2150;" d="M0 100v200h100v100h100v100h100v100h100v100h100v100h100v100h100v-200h-100v-100h-100v-100h-100v-100h-100v-100h-100v-100h-100v-100h-100zM0 600v500h200v-500h-200zM400 0v100h100v100h-200v100h400v-200h-100v-100h-100v-200h-200v200h100z" />
<glyph unicode="&#x2151;" d="M0 100v200h100v100h100v100h100v100h100v100h100v100h100v100h100v-200h-100v-100h-100v-100h-100v-100h-100v-100h-100v-100h-100v-100h-100zM0 600v500h200v-500h-200zM400 200v-100h100v100h-100zM300 200v100h300v-100h100v-300h-100v-100h-300v100h200v100h-200v100 h-100v100h100z" />
<glyph unicode="&#x2153;" d="M0 100v200h100v100h100v100h100v100h100v100h100v100h100v100h100v-200h-100v-100h-100v-100h-100v-100h-100v-100h-100v-100h-100v-100h-100zM0 600v500h200v-500h-200zM300 200v100h300v-100h100v-100h-100v-100h100v-100h-100v-100h-300v100h200v100h-200v100h200v100 h-200z" />
<glyph unicode="&#x2154;" d="M0 100v200h100v100h100v100h100v100h-300v200h100v100h100v100h-200v100h300v-100h100v-100h-100v-100h-100v-100h300v100h100v100h100v-200h-100v-100h-100v-100h-100v-100h-100v-100h-100v-100h-100v-100h-100zM300 200v100h300v-100h100v-100h-100v-100h100v-100h-100 v-100h-300v100h200v100h-200v100h200v100h-200z" />
<glyph unicode="&#x2155;" d="M0 100v200h100v100h100v100h100v100h100v100h100v100h100v100h100v-200h-100v-100h-100v-100h-100v-100h-100v-100h-100v-100h-100v-100h-100zM0 600v500h200v-500h-200zM600 100v-100h100v-100h-100v-100h-300v100h200v100h-200v300h400v-100h-200v-100h100z" />
<glyph unicode="&#x2156;" d="M0 100v200h100v100h100v100h100v100h-300v200h100v100h100v100h-200v100h300v-100h100v-100h-100v-100h-100v-100h300v100h100v100h100v-200h-100v-100h-100v-100h-100v-100h-100v-100h-100v-100h-100v-100h-100zM300 -200v100h200v100h-200v300h400v-100h-200v-100h100 v-100h100v-100h-100v-100h-300z" />
<glyph unicode="&#x2157;" d="M0 100v200h100v100h100v100h100v100h100v100h100v100h100v100h100v-200h-100v-100h-100v-100h-100v-100h-100v-100h-100v-100h-100v-100h-100zM0 600v100h200v100h-200v100h200v100h-200v100h300v-100h100v-100h-100v-100h100v-100h-100v-100h-300zM300 -200v100h200v100 h-200v300h400v-100h-200v-100h100v-100h100v-100h-100v-100h-300z" />
<glyph unicode="&#x2158;" d="M0 100v200h100v100h100v100h100v100h-100v100h-200v200h100v-100h100v100h-100v100h100v100h200v-400h100v100h100v100h100v-200h-100v-100h-100v-100h-100v-100h-100v-100h-100v-100h-100v-100h-100zM300 -200v100h200v100h-200v300h400v-100h-200v-100h100v-100h100 v-100h-100v-100h-300z" />
<glyph unicode="&#x2159;" d="M0 100v200h100v100h100v100h100v100h100v100h100v100h100v100h100v-200h-100v-100h-100v-100h-100v-100h-100v-100h-100v-100h-100v-100h-100zM0 600v500h200v-500h-200zM400 200v-100h200v-100h100v-100h-100v-100h-300v100h-100v300h100v100h300v-100h-200zM400 0v-100 h100v100h-100z" />
<glyph unicode="&#x215a;" d="M0 100v200h100v100h100v100h100v100h100v100h100v100h100v100h100v-200h-100v-100h-100v-100h-100v-100h-100v-100h-100v-100h-100v-100h-100zM0 600v100h200v100h-200v300h400v-100h-200v-100h100v-100h100v-100h-100v-100h-300zM400 200v-100h200v-100h100v-100h-100 v-100h-300v100h-100v300h100v100h300v-100h-200zM400 0v-100h100v100h-100z" />
<glyph unicode="&#x215b;" d="M0 100v200h100v100h100v100h100v100h100v100h100v100h100v100h100v-200h-100v-100h-100v-100h-100v-100h-100v-100h-100v-100h-100v-100h-100zM0 600v500h200v-500h-200zM400 200v-100h100v100h-100zM400 0v-100h100v100h-100zM300 200v100h300v-100h100v-100h-100v-100 h100v-100h-100v-100h-300v100h-100v100h100v100h-100v100h100z" />
<glyph unicode="&#x215c;" d="M0 100v200h100v100h100v100h100v100h100v100h100v100h100v100h100v-200h-100v-100h-100v-100h-100v-100h-100v-100h-100v-100h-100v-100h-100zM0 600v100h200v100h-200v100h200v100h-200v100h300v-100h100v-100h-100v-100h100v-100h-100v-100h-300zM400 200v-100h100v100 h-100zM400 0v-100h100v100h-100zM300 200v100h300v-100h100v-100h-100v-100h100v-100h-100v-100h-300v100h-100v100h100v100h-100v100h100z" />
<glyph unicode="&#x215d;" d="M0 100v200h100v100h100v100h100v100h100v100h100v100h100v100h100v-200h-100v-100h-100v-100h-100v-100h-100v-100h-100v-100h-100v-100h-100zM0 600v100h200v100h-200v300h400v-100h-200v-100h100v-100h100v-100h-100v-100h-300zM400 200v-100h100v100h-100zM400 0v-100 h100v100h-100zM300 200v100h300v-100h100v-100h-100v-100h100v-100h-100v-100h-300v100h-100v100h100v100h-100v100h100z" />
<glyph unicode="&#x215e;" d="M0 100v200h100v100h100v100h100v100h100v100h100v100h100v100h100v-200h-100v-100h-100v-100h-100v-100h-100v-100h-100v-100h-100v-100h-100zM0 600v200h100v100h100v100h-200v100h400v-200h-100v-100h-100v-200h-200zM400 200v-100h100v100h-100zM400 0v-100h100v100 h-100zM300 200v100h300v-100h100v-100h-100v-100h100v-100h-100v-100h-300v100h-100v100h100v100h-100v100h100z" />
<glyph unicode="&#x2190;" d="M0 400v100h100v100h100v100h200v-100h-100v-100h400v-100h-400v-100h100v-100h-200v100h-100v100h-100z" />
<glyph unicode="&#x2191;" d="M100 700v100h100v100h100v100h200v-100h100v-100h100v-100h-200v-700h-200v700h-200z" />
<glyph unicode="&#x2192;" d="M0 400v100h400v100h-100v100h200v-100h100v-100h100v-100h-100v-100h-100v-100h-200v100h100v100h-400z" />
<glyph unicode="&#x2193;" d="M100 200v100h200v700h200v-700h200v-100h-100v-100h-100v-100h-200v100h-100v100h-100z" />
<glyph unicode="&#x2194;" d="M0 400v100h100v100h100v100h100v-200h100v200h100v-100h100v-100h100v-100h-100v-100h-100v-100h-100v200h-100v-200h-100v100h-100v100h-100z" />
<glyph unicode="&#x2195;" d="M200 200v100h-100v100h200v300h-200v100h100v100h100v100h200v-100h100v-100h100v-100h-200v-300h200v-100h-100v-100h-100v-100h-200v100h-100z" />
<glyph unicode="&#x21a8;" d="M200 200v100h-100v100h200v300h-200v100h100v100h100v100h200v-100h100v-100h100v-100h-200v-300h200v-100h-100v-100h-100v-100h200v-100h-600v100h200v100h-100z" />
<glyph unicode="&#x2202;" d="M0 100v300h100v100h100v100h300v200h-100v100h-100v-100h-200v100h100v100h300v-100h100v-100h100v-600h-100v-100h-100v-100h-400v100h-100zM200 100h200v100h100v300h-200v-100h-100v-300z" />
<glyph unicode="&#x2205;" d="M0 0v100h100v200h-100v300h100v100h400v100h100v100h200v-100h-100v-200h100v-300h-100v-100h-400v-100h-100v-100h-200zM200 400h100v200h-100v-200zM400 400v-100h200v300h-100v-200h-100z" />
<glyph unicode="&#x2206;" d="M0 100v500h100v100h100v100h100v100h100v-100h100v-100h100v-100h100v-500h-700zM200 200h300v400h-100v100h-100v-100h-100v-400z" />
<glyph unicode="&#x2208;" d="M100 200v600h100v100h100v100h300v-100h-200v-100h-100v-200h300v-100h-300v-300h100v-100h200v-100h-300v100h-100v100h-100z" />
<glyph unicode="&#x220f;" d="M0 -200v1200h700v-1200h-200v1100h-300v-1100h-200z" />
<glyph unicode="&#x2211;" d="M0 200h100v100h100v100h100v100h-100v100h-100v100h-100v200h700v-200h-200v100h-300v-100h100v-100h100v-100h100v-100h-100v-100h-100v-100h-100v-100h300v100h200v-200h-700v200z" />
<glyph unicode="&#x2212;" d="M0 400v100h700v-100h-700z" />
<glyph unicode="&#x2215;" d="M0 200h100v100h100v100h100v100h100v100h100v100h100v100h100v-200h-100v-100h-100v-100h-100v-100h-100v-100h-100v-100h-100v-100h-100v200z" />
<glyph unicode="&#x2219;" d="M500 500v-200h-200v200h200z" />
<glyph unicode="&#x221a;" d="M0 400v100h300v-300h100v900h400v-100h-200v-1000h-300v100h-100v100h-100v200h-100z" />
<glyph unicode="&#x221e;" d="M0 300v300h100v100h600v-100h100v-300h-100v-100h-600v100h-100zM200 300h100v300h-100v-300zM500 300h100v300h-100v-300z" />
<glyph unicode="&#x221f;" d="M0 200v400h200v-300h500v-100h-700z" />
<glyph unicode="&#x2229;" d="M0 0v800h100v100h500v-100h100v-800h-200v800h-300v-800h-200z" />
<glyph unicode="&#x222b;" d="M0 0h200v-300h100v1400h100v100h300v-100h100v-200h-200v200h-100v-1400h-100v-100h-300v100h-100v300z" />
<glyph unicode="&#x2248;" d="M0 200v100h100v100h300v-100h100v100h200v-100h-100v-100h-300v100h-100v-100h-200zM0 500v100h100v100h300v-100h100v100h200v-100h-100v-100h-300v100h-100v-100h-200z" />
<glyph unicode="&#x2260;" d="M0 100v100h100v100h-100v100h200v100h100v100h-300v100h400v100h100v100h200v-100h-100v-100h100v-100h-200v-100h-100v-100h300v-100h-400v-100h-100v-100h-200z" />
<glyph unicode="&#x2261;" d="M0 100v100h700v-100h-700zM0 400v100h700v-100h-700zM0 700v100h700v-100h-700z" />
<glyph unicode="&#x2264;" d="M200 500h-100v100h100v100h100v100h100v100h200v-100h-100v-100h-100v-100h-100v-100h100v-100h100v-100h100v-100h-200v100h-100v100h-100v100zM100 0v100h600v-100h-600z" />
<glyph unicode="&#x2265;" d="M200 200v100h100v100h100v100h100v100h-100v100h-100v100h-100v100h200v-100h100v-100h100v-100h100v-100h-100v-100h-100v-100h-100v-100h-200zM100 0v100h600v-100h-600z" />
<glyph unicode="&#x2299;" d="M0 100v800h100v100h500v-100h100v-800h-100v-100h-500v100h-100zM200 100h300v800h-300v-800zM300 400v200h100v-200h-100z" />
<glyph unicode="&#x2300;" d="M0 100v800h100v100h500v-100h100v-800h-100v-100h-500v100h-100zM200 100h300v400h-100v-100h-100v-100h-100v-200zM200 500h100v100h100v100h100v200h-300v-400z" />
<glyph unicode="&#x2302;" d="M0 100v400h100v100h100v100h100v100h100v-100h100v-100h100v-100h100v-400h-700zM200 200h300v300h-100v100h-100v-100h-100v-300z" />
<glyph unicode="&#x2310;" d="M0 100v500h700v-100h-500v-400h-200z" />
<glyph unicode="&#x2320;" d="M800 700h-200v200h-100v-1300h-200v1300h100v100h300v-100h100v-200z" />
<glyph unicode="&#x2321;" d="M0 100v300h200v-300h100v1100h200v-1100h-100v-100h-300v100h-100z" />
<glyph unicode="&#x2500;" d="M0 400v100h800v-100h-800z" />
<glyph unicode="&#x2502;" d="M500 1200v-1600h-200v1600h200z" />
<glyph unicode="&#x250c;" d="M800 500v-100h-300v-800h-200v900h500z" />
<glyph unicode="&#x2510;" d="M0 400v100h500v-900h-200v800h-300z" />
<glyph unicode="&#x2514;" d="M500 1200v-700h300v-100h-500v800h200z" />
<glyph unicode="&#x2518;" d="M500 1200v-800h-500v100h300v700h200z" />
<glyph unicode="&#x251c;" d="M500 1200v-700h300v-100h-300v-800h-200v1600h200z" />
<glyph unicode="&#x2524;" d="M500 1200v-1600h-200v800h-300v100h300v700h200z" />
<glyph unicode="&#x252c;" d="M0 400v100h800v-100h-300v-800h-200v800h-300z" />
<glyph unicode="&#x2534;" d="M500 1200v-700h300v-100h-800v100h300v700h200z" />
<glyph unicode="&#x253c;" d="M500 1200v-700h300v-100h-300v-800h-200v800h-300v100h300v700h200z" />
<glyph unicode="&#x2550;" d="M0 400v100h800v-100h-800zM0 600v100h800v-100h-800z" />
<glyph unicode="&#x2551;" d="M500 1200h200v-1600h-200v1600zM400 -400h-200v1600h200v-1600z" />
<glyph unicode="&#x2552;" d="M800 500v-100h-300v-800h-200v1100h500v-100h-300v-100h300z" />
<glyph unicode="&#x2553;" d="M400 400v-800h-200v900h600v-100h-100v-800h-200v800h-100z" />
<glyph unicode="&#x2554;" d="M400 -400h-200v1100h600v-100h-400v-1000zM800 500v-100h-100v-800h-200v900h300z" />
<glyph unicode="&#x2555;" d="M0 400v100h300v100h-300v100h500v-1100h-200v800h-300z" />
<glyph unicode="&#x2556;" d="M0 400v100h700v-900h-200v800h-100v-800h-200v800h-200z" />
<glyph unicode="&#x2557;" d="M0 400v100h400v-900h-200v800h-200zM0 600v100h700v-1100h-200v1000h-500z" />
<glyph unicode="&#x2558;" d="M500 1200v-500h300v-100h-300v-100h300v-100h-500v800h200z" />
<glyph unicode="&#x2559;" d="M500 1200h200v-700h100v-100h-600v800h200v-700h100v700z" />
<glyph unicode="&#x255a;" d="M500 1200h200v-500h100v-100h-300v600zM400 500h400v-100h-600v800h200v-700z" />
<glyph unicode="&#x255b;" d="M500 1200v-800h-500v100h300v100h-300v100h300v500h200z" />
<glyph unicode="&#x255c;" d="M500 1200h200v-800h-700v100h200v700h200v-700h100v700z" />
<glyph unicode="&#x255d;" d="M500 1200h200v-800h-700v100h500v700zM0 600v100h200v500h200v-600h-400z" />
<glyph unicode="&#x255e;" d="M500 1200v-500h300v-100h-300v-100h300v-100h-300v-800h-200v1600h200z" />
<glyph unicode="&#x255f;" d="M500 1200h200v-700h100v-100h-100v-800h-200v1600zM400 -400h-200v1600h200v-1600z" />
<glyph unicode="&#x2560;" d="M800 500v-100h-100v-800h-200v900h300zM800 700v-100h-300v600h200v-500h100zM200 -400v1600h200v-1600h-200z" />
<glyph unicode="&#x2561;" d="M500 1200v-1600h-200v800h-300v100h300v100h-300v100h300v500h200z" />
<glyph unicode="&#x2562;" d="M500 1200h200v-1600h-200v1600zM0 400v100h200v700h200v-1600h-200v800h-200z" />
<glyph unicode="&#x2563;" d="M0 400v100h400v-900h-200v800h-200zM0 600v100h200v500h200v-600h-400zM500 1200h200v-1600h-200v1600z" />
<glyph unicode="&#x2564;" d="M0 400v100h800v-100h-300v-800h-200v800h-300zM0 600v100h800v-100h-800z" />
<glyph unicode="&#x2565;" d="M0 400v100h800v-100h-100v-800h-200v800h-100v-800h-200v800h-200z" />
<glyph unicode="&#x2566;" d="M0 400v100h400v-900h-200v800h-200zM800 500v-100h-100v-800h-200v900h300zM0 600v100h800v-100h-800z" />
<glyph unicode="&#x2567;" d="M500 1200v-500h300v-100h-800v100h300v500h200zM0 400v100h800v-100h-800z" />
<glyph unicode="&#x2568;" d="M500 1200h200v-700h100v-100h-800v100h200v700h200v-700h100v700z" />
<glyph unicode="&#x2569;" d="M0 400v100h800v-100h-800zM0 600v100h200v500h200v-600h-400zM800 700v-100h-300v600h200v-500h100z" />
<glyph unicode="&#x256a;" d="M0 400v100h300v100h-300v100h300v500h200v-500h300v-100h-300v-100h300v-100h-300v-800h-200v800h-300z" />
<glyph unicode="&#x256b;" d="M0 400v100h200v700h200v-700h100v700h200v-700h100v-100h-100v-800h-200v800h-100v-800h-200v800h-200z" />
<glyph unicode="&#x256c;" d="M0 400v100h400v-900h-200v800h-200zM800 500v-100h-100v-800h-200v900h300zM0 600v100h200v500h200v-600h-400zM800 700v-100h-300v600h200v-500h100z" />
<glyph unicode="&#x2580;" d="M0 500v700h800v-700h-800z" />
<glyph unicode="&#x2581;" d="M0 -100h800v-200h-800v200z" />
<glyph unicode="&#x2584;" d="M0 500h800v-900h-800v900z" />
<glyph unicode="&#x2588;" d="M0 -400v1600h800v-1600h-800z" />
<glyph unicode="&#x258c;" d="M0 -400v1600h400v-1600h-400z" />
<glyph unicode="&#x2590;" d="M400 -400v1600h400v-1600h-400z" />
<glyph unicode="&#x2591;" d="M800 200v-100h-100v100h100zM800 0v-100h-100v100h100zM800 -200v-100h-100v100h100zM800 500h-100v100h100v-100zM800 400v-100h-100v100h100zM800 700h-100v100h100v-100zM800 1000v-100h-100v100h100zM800 1200v-100h-100v100h100zM300 1100v100h100v-100h-100z M300 100v100h100v-100h-100zM300 -100v100h100v-100h-100zM300 -200h100v-100h-100v100zM300 500v100h100v-100h-100zM300 300v100h100v-100h-100zM300 700v100h100v-100h-100zM300 900v100h100v-100h-100zM600 200h-100v100h100v-100zM600 100v-100h-100v100h100zM600 -100 v-100h-100v100h100zM600 500v-100h-100v100h100zM600 -300v-100h-100v100h100zM600 700v-100h-100v100h100zM600 1000h-100v100h100v-100zM600 900v-100h-100v100h100zM100 1100h100v-100h-100v100zM100 200v100h100v-100h-100zM100 0v100h100v-100h-100zM100 -200v100h100 v-100h-100zM100 400v100h100v-100h-100zM100 -400v100h100v-100h-100zM100 600v100h100v-100h-100zM100 800v100h100v-100h-100z" />
<glyph unicode="&#x2592;" d="M0 200v100h100v-100h-100zM0 0v100h100v-100h-100zM0 -200v100h100v-100h-100zM0 400v100h100v-100h-100zM0 -400v100h100v-100h-100zM0 600v100h100v-100h-100zM0 1000v100h100v-100h-100zM0 800v100h100v-100h-100zM800 200v-100h-100v100h100zM800 0v-100h-100v100 h100zM800 -200v-100h-100v100h100zM800 500h-100v100h100v-100zM800 400v-100h-100v100h100zM800 700h-100v100h100v-100zM800 1000v-100h-100v100h100zM800 1200v-100h-100v100h100zM300 1100v100h100v-100h-100zM300 200h100v-100h-100v100zM300 100v-100h-100v100h100z M300 0h100v-100h-100v100zM300 -100v-100h-100v100h100zM300 -200h100v-100h-100v100zM300 500v-100h-100v100h100zM300 400h100v-100h-100v100zM300 300v-100h-100v100h100zM300 -300v-100h-100v100h100zM300 700v-100h-100v100h100zM300 600h100v-100h-100v100zM300 1000 h100v-100h-100v100zM300 900v-100h-100v100h100zM300 800h100v-100h-100v100zM600 200v-100h-100v100h100zM600 100h100v-100h-100v100zM600 0v-100h-100v100h100zM600 -100h100v-100h-100v100zM600 -200v-100h-100v100h100zM600 500h-100v100h100v-100zM600 400v100h100 v-100h-100zM600 300h-100v100h100v-100zM600 -300h100v-100h-100v100zM600 700h-100v100h100v-100zM600 600v100h100v-100h-100zM600 1000v-100h-100v100h100zM600 900h100v-100h-100v100zM600 1200v-100h-100v100h100zM600 1100h100v-100h-100v100zM100 1100v100h100v-100 h-100zM100 200h100v-100h-100v100zM100 0h100v-100h-100v100zM100 -200h100v-100h-100v100zM100 500v100h100v-100h-100zM100 400h100v-100h-100v100zM100 700v100h100v-100h-100zM100 1000h100v-100h-100v100zM400 200v100h100v-100h-100zM400 100h100v-100h-100v100z M400 -100h100v-100h-100v100zM400 500h100v-100h-100v100zM400 -300h100v-100h-100v100zM400 700h100v-100h-100v100zM400 1000v100h100v-100h-100zM400 900h100v-100h-100v100zM700 200h-100v100h100v-100zM200 1000v100h100v-100h-100z" />
<glyph unicode="&#x2593;" d="M0 100v100h100v100h-100v100h100v100h-100v100h100v100h-100v100h100v100h-100v100h100v100h-100v100h200v-100h100v100h300v-100h100v100h100v-1600h-300v100h-100v-100h-300v100h-100v100h100v100h-100v100h100v100h-100zM300 200h-100v-100h100v100zM300 0h-100v-100 h100v100zM300 -200h-100v-100h100v100zM300 500v100h-100v-100h100zM300 400h-100v-100h100v100zM300 700v100h-100v-100h100zM300 1000h-100v-100h100v100zM600 200v-100h100v100h-100zM600 0v-100h100v100h-100zM600 -200v-100h100v100h-100zM600 500h100v100h-100v-100z M600 400v-100h100v100h-100zM600 700h100v100h-100v-100zM600 1000v-100h100v100h-100zM400 200h100v100h-100v-100zM400 100v-100h100v100h-100zM400 -100v-100h100v100h-100zM400 500v-100h100v100h-100zM400 700v-100h100v100h-100zM400 1000h100v100h-100v-100zM400 900 v-100h100v100h-100z" />
<glyph unicode="&#x25a0;" d="M100 100v700h500v-700h-500z" />
<glyph unicode="&#x25a1;" d="M100 100v700h600v-700h-600zM500 200v500h-200v-500h200z" />
<glyph unicode="&#x25aa;" d="M100 200v400h500v-400h-500z" />
<glyph unicode="&#x25ab;" d="M400 500h-100v-200h100v200zM100 200v400h500v-400h-500z" />
<glyph unicode="&#x25ac;" d="M0 0v400h700v-400h-700z" />
<glyph unicode="&#x25b2;" d="M0 100v200h100v200h100v200h100v100h100v-100h100v-200h100v-200h100v-200h-700z" />
<glyph unicode="&#x25ba;" d="M0 0v1100h100v-100h100v-100h100v-100h100v-100h100v-100h200v-100h-200v-100h-100v-100h-100v-100h-100v-100h-100v-100h-100z" />
<glyph unicode="&#x25bc;" d="M0 600v200h700v-200h-100v-200h-100v-200h-100v-100h-100v100h-100v200h-100v200h-100z" />
<glyph unicode="&#x25c4;" d="M0 500v100h200v100h100v100h100v100h100v100h100v100h100v-1100h-100v100h-100v100h-100v100h-100v100h-100v100h-200z" />
<glyph unicode="&#x25ca;" d="M0 400v100h100v100h100v100h100v100h100v-100h100v-100h100v-100h100v-100h-100v-100h-100v-100h-100v-100h-100v100h-100v100h-100v100h-100zM200 500v-100h100v-100h100v100h100v100h-100v100h-100v-100h-100z" />
<glyph unicode="&#x25cb;" d="M100 200v400h100v100h400v-100h100v-400h-100v-100h-400v100h-100zM200 300h100v-100h200v100h100v200h-100v100h-200v-100h-100v-200z" />
<glyph unicode="&#x25cf;" d="M100 200v400h100v100h400v-100h100v-400h-100v-100h-400v100h-100z" />
<glyph unicode="&#x25d8;" d="M0 -400v1600h800v-1600h-800zM200 300h100v-100h200v100h100v200h-100v100h-200v-100h-100v-200z" />
<glyph unicode="&#x25d9;" d="M0 -400v1600h800v-1600h-800zM200 200v-100h400v100h100v400h-100v100h-400v-100h-100v-400h100zM200 500h100v100h200v-100h100v-200h-100v-100h-200v100h-100v200z" />
<glyph unicode="&#x25e6;" d="M100 500h100v100h300v-100h100v-200h-100v-100h-300v100h-100v200zM300 300h100v200h-100v-200z" />
<glyph unicode="&#x25fc;" horiz-adv-x="700" d="M0 700h700v-700h-700v700z" />
<glyph unicode="&#x263a;" d="M0 100v800h100v-800h-100zM200 400v100h400v-100h-100v-100h-200v100h-100zM200 700v100h100v-100h-100zM600 700h-100v100h100v-100zM800 100h-100v800h100v-800zM100 100h600v-100h-600v100zM100 900v100h600v-100h-600z" />
<glyph unicode="&#x263b;" d="M0 100v800h100v100h600v-100h100v-800h-100v-100h-600v100h-100zM200 500v-100h100v-100h200v100h100v100h-400zM200 700h100v100h-100v-100zM600 700v100h-100v-100h100z" />
<glyph unicode="&#x263c;" d="M0 200v100h200v-100h-200zM0 400v100h200v100h100v300h200v-300h100v-100h200v-100h-200v-100h-100v-300h-200v300h-100v100h-200zM0 600v100h200v-100h-200zM600 200v100h200v-100h-200zM600 600v100h200v-100h-200zM300 500v-100h200v100h-200z" />
<glyph unicode="&#x2640;" d="M200 500h-100v400h100v100h400v-100h100v-400h-100v-100h-100v-100h200v-100h-200v-200h-200v200h-200v100h200v100h-100v100zM300 500h200v400h-200v-400z" />
<glyph unicode="&#x2642;" d="M0 100v400h100v100h100v100h100v100h100v100h-100v100h400v-400h-100v200h-100v-100h-100v-100h100v-100h100v-400h-100v-100h-400v100h-100zM200 100h200v400h-200v-400z" />
<glyph unicode="&#x2660;" d="M0 400v200h100v100h100v100h100v100h200v-100h100v-100h100v-100h100v-200h-100v-100h-200v-200h100v-100h-400v100h100v200h-200v100h-100z" />
<glyph unicode="&#x2663;" d="M0 300v300h200v200h100v100h200v-100h100v-200h200v-300h-300v300h-200v-300h-300zM200 0v100h100v200h200v-200h100v-100h-400z" />
<glyph unicode="&#x2665;" d="M0 300v400h100v100h200v-100h100v100h200v-100h100v-400h-100v-100h-100v-100h-100v-100h-100v100h-100v100h-100v100h-100z" />
<glyph unicode="&#x2666;" d="M0 400v100h100v100h100v100h100v100h100v-100h100v-100h100v-100h100v-100h-100v-100h-100v-100h-100v-100h-100v100h-100v100h-100v100h-100z" />
<glyph unicode="&#x266a;" d="M0 200h100v100h100v700h600v-300h-400v-600h-100v-100h-300v200zM400 900v-100h200v100h-200z" />
<glyph unicode="&#x266b;" d="M0 200h100v800h700v-900h-100v-100h-200v300h100v400h-300v-700h-100v-100h-200v300zM300 900v-100h300v100h-300z" />
<glyph unicode="&#x2713;" d="M0 200v200h100v-100h100v-100h100v200h100v400h100v300h200v-300h-100v-400h-100v-300h-100v-100h-200v100h-100v100h-100z" />
<glyph unicode="&#xfb01;" d="M0 0v100h100v400h-100v100h100v300h100v100h500v-200h-200v100h-200v-300h400v-500h100v-100h-300v500h-200v-400h100v-100h-400z" />
<glyph unicode="&#xfb02;" d="M0 0v100h100v400h-100v100h100v300h100v100h500v-900h100v-100h-300v900h-200v-300h100v-100h-100v-400h100v-100h-400z" />
<glyph unicode="&#xfffd;" d="M0 -400v1100h200v200h300v-200h-100v-100h-100v-300h200v300h100v100h100v200h-100v100h-500v-100h-100v300h800v-1600h-800zM300 200v-200h200v200h-200z" />
</font>
</defs>
</svg>
